Loading...
Error

Скачать В объезд / The Detour (сезон 01) (Джефф Томсич и др.) [2016, комедия, WEB-DL] [720p] [MVO (Несмертельное оружие)]+[Eng] торрент без регистрации

 
Статистика раздачи
Размер:  6,88 GB   |    Скачан:  45 раз
Сидов:  1  [  0 KB/s  ]  
 
Автор Сообщение

МихаНЕзатор

[] 


«Сезон: 1 / Серии: 1-10 (10)»

Информация о сериале

Название: Поехавшие / В объезд
Оригинальное название: The Detour
Год выхода: 2016
Страна: США
Студия: TBS Productions Inc.
Жанр: комедия
Режиссеры: Джефф Томсич, Стив Пинк, Бреннан Шрофф

В ролях: Джейсон Джонс, Натали Зи, Эшли Герасимович, Лайам Кэрролл, Мэри Грилл, Даниэлла Пинеда, Фил Ривз, Дэрин Купер, Деджа Ди, Тейлор Ковальски, Винс Фостер, Денитра Ислер, Адам Бойер, Том Амандес и др.

Описание:
История небольшой семьи с двумя детьми, которая решила отправиться в долгое путешествие от родного дома прямиком до Флориды. Путь непростой, но герои всегда оптимистичны — они верят в себя, а их путь благоволит им. Кажется, что впереди их ждет долгая дорога, полная интересных открытий. Однако поездка оказывается не такой удачной! Вскоре положительный настрой сменяется упадническими чувствами, ведь героев начинают преследовать неудачи… одна за другой. И отбоя от них нет!

Релиз от:

Продолжительность: 2 x ~22 мин.
Перевод: Профессиональный (многоголосый закадровый) - [Несмертельное оружие]
Cубтитры: отсутствуют

Файл
Качество: WEB-DL 720p
Формат: MKV
Видео кодек: H264
Аудио кодек: AC3

Видео: 1280x720 (16:9), 23.976 fps, ~3967 Kbps, 0.180 bit/pixel
| Аудио #1: 48 kHz, AC3 Dolby Digital, 2/0 (L,R) ch, ~192.00 kbps | Rus | MVO
| Аудио #2: 48 kHz, AC3 Dolby Digital, 3/2 (L,C,R,l,r) + LFE ch, ~384.00 kbps | Eng | Original

АНОНСЫ ПОПУЛЯРНЫХ РАЗДАЧ


Торрент обновлён, добавлена 10-я серия!

Эпизод: 01 - «Пилот» (The Pilot)
Эпизод: 02 - «Отель» (The Hotel)
Эпизод: 03 - «Алкоголь» (The Tank)
Эпизод: 04 - «Ресторан» (The Restaurant)
Эпизод: 05 - «Полупансион» (The B & B)
Эпизод: 06 - «Свадьба» (The Wedding)

General
Unique ID : 221440493913059008418172480554900510775 (0xA697E347B1892597BCAA0FC5A6C9D837)
Complete name : The.Detour.S01E01.The.Pilot.WEB-DL.720p.H.264.RUS.-Nesmertelnoe.oruzhie.mkv
Format : Matroska
Format version : Version 2
File size : 716 MiB
Duration : 21mn 34s
Overall bit rate : 4 636 Kbps
Movie name : Поехавшие / В объезд / The Detour / Сезон: 1 / Эпизод: 01 - Пилот
Encoded date : UTC 2016-04-15 06:50:29
Writing application : mkvmerge v5.2.1 ('A Far Off Place') built on Jan 2 2012 23:21:10
Writing library : libebml v1.2.3 + libmatroska v1.3.0

Video
ID : 1
Format : AVC
Format/Info : Advanced Video Codec
Format profile : High@L3.1
Format settings, CABAC : No
Format settings, ReFrames : 2 frames
Codec ID : V_MPEG4/ISO/AVC
Duration : 21mn 34s
Bit rate : 3 967 Kbps
Width : 1 280 pixels
Height : 720 pixels
Display aspect ratio : 16:9
Frame rate mode : Constant
Frame rate : 23.976 (24000/1001) fps
Color space : YUV
Chroma subsampling : 4:2:0
Bit depth : 8 bits
Scan type : Progressive
Bits/(Pixel*Frame) : 0.180
Stream size : 612 MiB (86%)
Title : Релиз от: Несмертельное оружие
Language : English
Default : Yes
Forced : No
Color range : Limited
Color primaries : BT.709
Transfer characteristics : BT.709
Matrix coefficients : BT.709

Audio #1
ID : 2
Format : AC-3
Format/Info : Audio Coding 3
Mode extension : CM (complete main)
Format settings, Endianness : Big
Codec ID : A_AC3
Duration : 21mn 34s
Bit rate mode : Constant
Bit rate : 192 Kbps
Channel(s) : 2 channels
Channel positions : Front: L R
Sampling rate : 48.0 KHz
Frame rate : 31.250 fps (1536 spf)
Compression mode : Lossy
Stream size : 29.6 MiB (4%)
Title : MVO (Несмертельное оружие)
Language : Russian
Default : Yes
Forced : No

Audio #2
ID : 3
Format : AC-3
Format/Info : Audio Coding 3
Mode extension : CM (complete main)
Format settings, Endianness : Big
Codec ID : A_AC3
Duration : 21mn 34s
Bit rate mode : Constant
Bit rate : 384 Kbps
Channel(s) : 6 channels
Channel positions : Front: L C R, Side: L R, LFE
Sampling rate : 48.0 KHz
Frame rate : 31.250 fps (1536 spf)
Compression mode : Lossy
Stream size : 59.3 MiB (8%)
Title : Original
Language : English
Default : No
Forced : No

Раздача ведётся путём добавления новых серий; при каждом добавлении создаётся новый торрент. Чтобы начать докачку новой серии, пользователям необходимо сделать следующее:
• (1) остановить скачивание,
• (2) удалить старый торрент у себя из клиента (старые серии удалять не надо),
• (3) скачать новый торрент и запустить его у себя в клиенте вместо старого, при этом указать клиенту путь в старую папку куда и должно происходить скачивание новых серий.
Ваш клиент при этом должен произвести хеширование (проверку) старой папки (если не производит сам - помогите ему сделать это), и будет докачивать только те серии которых у вас ещё нет. Старые серии при этом не удаляются, а продолжают раздаваться!
Eсли вы уже удалили старые серии, то предотвратить повторную закачку старых серий можно, отжав галочку в соответствующих местах при запуске нового торрента. По возможности, желательно не удалять старые серии как можно дольше чтобы релизёр не столько продолжал раздавать старые серии, а смог сконцентрироваться на новых.




Скачать В.объезд.The.Detour.(сезон.01).(Джефф.Томсич.и.др.).[2016.комедия.WEB-DL].[720p].[MVO.(Несмертельное.оружие)]+[Eng].torrent без регистрации
Золото ЗОЛОТАЯ РАЗДАЧА! СКАЧАННОЕ НЕ ЗАСЧИТЫВАЕТСЯ! Золото
Дата: Зарегистрирован   [ Тип: внутренний ] Как тут cкачать?
MAGNET ссылка
MAGNET ссылка


Скачать .torrent

19 KB

Статус: проверено DHT
Скачан: торрент - 45 раз, раздача полностью - 1 раз
Размер: 6,88 GB
Оценка:  - (Голосов: 0)
Поблагодарили: 0
Поделиться ссылкой на эту раздачу с друзьями:
В контактеFacebookОдноклассникиTwitterLivejournalМой МирLiveinternet
 

 
Показать сообщения:    


Вы не можете начинать темы
Вы не можете отвечать на сообщения
Вы не можете редактировать свои сообщения
Вы не можете удалять свои сообщения
Вы не можете голосовать в опросах
Вы не можете прикреплять файлы к сообщениям
Вы можете скачивать файлы