Loading...
Error

Скачать Вискерс / Whiskers (Джим Кауфман) [1997, фэнтези, комедия, семейный, VHSRip] [AVO (Сергей Кузнецов)] торрент без регистрации

 
Статистика раздачи
Размер:  883 MB   |    Скачан:  41 раз

Полного источника не было: 29 минут

 
Автор Сообщение

Marsianka

[] 

Информация о фильме
Название: Вискерс (Усатик)
Оригинальное название: Whiskers
Год выхода: 1997
Жанр: фэнтези, комедия, семейный
Режиссер: Джим Кауфман
В ролях: Стив Адамс, Гучи Бой, Марк Бромилов, Майкл Калоз, Брент Карвер, Сюзанн Клотье, Роберт Хигден

О фильме:
Маленький Джед не имеет друзей ни в школе, ни среди соседей. Единственный его друг - это кот Вискерс. Но что это за друг, с которым нельзя поговорить или вместе поиграть в какие-нибудь игры?
И вот однажды в городке открывается выставка, посвященная древнеегипетским кошкам и поклонению им, как божеству. Джед с удовольствием идет на эту выставку и первое, что он встречает, это большую статую богини-Кошки.
Пользуясь тем, что никого рядом нет, он подходит к богине и просит её о странной услуге: он хочет, чтобы его кот Вискерс превратился в мальчика, с которым можно было бы дружить.
Попросили у самой богини - значит, будет сделано! Но только Джед не учитывает кошачий возраст, и кот превращается в 30-летнего мужчину.
Много приключений сваливается на голову мальчика, а одно из них - это помощь в осуществлении обещания кота, что он, когда состарится его мать-кошка, будет всегда рядом с нею…



Производство: Канада / Les Productions La Fête Inc., Showtime Networks
Продолжительность: 01:34:42
Перевод: авторский (одноголосый закадровый) [Сергей Кузнецов]

Файл
Качество: VHSRip
Формат: AVI
Видео: XviD, 592x448 (4:3), 29.970 fps, 1031 kbps, 0.13 bit/pixel
Аудио #1: русский, MP3 2.0, 48 kHz, 128 kbps
Аудио #2: английский, MP3 2.0, 48 kHz, 128 kbps
Общее
Полное имя : Whiskers.1997.VHSRip.avi
Формат : AVI
Формат/Информация : Audio Video Interleave
Размер файла : 883 Мбайт
Продолжительность : 1 ч. 34 м.
Общий поток : 1304 Кбит/сек
Программа кодирования : VirtualDubMod 1.5.10.2 (build 2540/release)
Библиотека кодирования : VirtualDubMod build 2540/release

Видео
Идентификатор : 0
Формат : MPEG-4 Visual
Профиль формата : Simple@L3
Параметр BVOP формата : Нет
Параметр QPel формата : Нет
Параметр GMC формата : Без точки перехода
Параметр матрицы формата : Default (H.263)
Идентификатор кодека : XVID
Идентификатор кодека/Подсказка : XviD
Продолжительность : 1 ч. 34 м.
Битрейт : 1031 Кбит/сек
Ширина : 592 пикселя
Высота : 448 пикселей
Соотношение сторон : 4:3
Частота кадров : 29,970 кадров/сек
Цветовое пространство : YUV
Субдискретизация насыщенности : 4:2:0
Битовая глубина : 8 бит
Тип развёртки : Прогрессивная
Метод сжатия : С потерями
Бит/(Пиксели*Кадры) : 0.130
Размер потока : 698 Мбайт (79%)
Библиотека кодирования : XviD 1.1.2 (UTC 2006-11-01)

Аудио #1
Идентификатор : 1
Формат : MPEG Audio
Версия формата : Version 1
Профиль формата : Layer 3
Идентификатор кодека : 55
Идентификатор кодека/Подсказка : MP3
Продолжительность : 1 ч. 34 м.
Вид битрейта : Постоянный
Битрейт : 128 Кбит/сек
Каналы : 2 канала
Частота : 48,0 КГц
Метод сжатия : С потерями
Размер потока : 86,7 Мбайт (10%)
Выравнивание : Соединение по промежуткам
Продолжительность промежутка : 33 мс. (1,00 видеокадр)
Время предзагрузки промежутка : 504 мс.

Аудио #2
Идентификатор : 2
Формат : MPEG Audio
Версия формата : Version 1
Профиль формата : Layer 3
Режим : Joint stereo
Расширение режима : MS Stereo
Идентификатор кодека : 55
Идентификатор кодека/Подсказка : MP3
Продолжительность : 1 ч. 34 м.
Вид битрейта : Постоянный
Битрейт : 128 Кбит/сек
Каналы : 2 канала
Частота : 48,0 КГц
Метод сжатия : С потерями
Задержка видео : 14 мс.
Размер потока : 86,7 Мбайт (10%)
Выравнивание : Разделение по промежуткам
Продолжительность промежутка : 33 мс. (1,00 видеокадр)
Время предзагрузки промежутка : 500 мс.



Скачать Вискерс.Whiskers.(Джим.Кауфман).[1997.фэнтези.комедия.семейный.VHSRip].[AVO.(Сергей.Кузнецов)].torrent без регистрации
Золото ЗОЛОТАЯ РАЗДАЧА! СКАЧАННОЕ НЕ ЗАСЧИТЫВАЕТСЯ! Золото
Дата: Зарегистрирован   [ Тип: внутренний ] Как тут cкачать?
MAGNET ссылка
MAGNET ссылка


Скачать .torrent

18 KB

Статус: проверено DHT
Скачан: торрент - 41 раз, раздача полностью - 1 раз
Размер: 883 MB
Оценка:  - (Голосов: 0)
Поблагодарили: 1
Поделиться ссылкой на эту раздачу с друзьями:
В контактеFacebookОдноклассникиTwitterLivejournalМой МирLiveinternet
 

 
Показать сообщения:    


Вы не можете начинать темы
Вы не можете отвечать на сообщения
Вы не можете редактировать свои сообщения
Вы не можете удалять свои сообщения
Вы не можете голосовать в опросах
Вы не можете прикреплять файлы к сообщениям
Вы можете скачивать файлы