Loading...
Error

Скачать Потерянные в Манхеттене / Adrift in Manhattan (Альфредо Родригес де Вилла) [2007, драма, BDRip-AVC] [DVO]+[Sub] торрент без регистрации

 
Статистика раздачи
Размер:  1,75 GB   |    Скачан:  34 раза
Сидов:  5  [  0 KB/s  ]  
 
Автор Сообщение

Marsianka

[] 

Информация о фильме
Название: Потерянные в Манхеттене
Оригинальное название: Adrift in Manhattan
Год выпуска: 2007
Страна: США
Жанр: драма
Перевод: Профессиональный (двухголосый) [Так Треба Продакшн]
Субтитры: английские (Full)
Продолжительность: 01:30:26
Режиссер: Альфредо Родригес де Вилла
В ролях: Виктор Расук (Simon Colon), Ричард Петрочелли (Mr. Sneider), Николь Лич (Melanie), Карен Оливо (Ana), Хэзер Грэм (Rose Phipps), Марлин Форте (Marta Colon), Доминик Кьянезе (Tomasso Pensara), Элизабет Пенья (Isabel Parades), Уильям Болдуин (Mark Phipps), Эрика Мишелс (Claire), Лайам Де Вилла (Casey), Керен Лав Перильман (Jen)
Описание:
Жизни трёх героев тесно переплетаются. Врач-оккулист, женщина, запутавшаяся в своих мыслях и желаниях. Художник, который безрезультатно борется с наступающей слепотой. И юный фотограф с противоречивыми чувствами, разрывающими его изнутри. Кажется, что между этими людьми нет ничего общего, но это лишь на первый взгляд.
Рейтинг:

MPAA: R - Лицам до 17 лет обязательно присутствие взрослого
Качество: BDRip-AVC
Формат: MKV
Видео: AVC, 1024x576 (16:9), 2325 kbps, 23,976 fps, 0,164 bpp
Аудио №1: русский / AC3 / 2.0 / 48 kHz / 256 kbps / 16 bit |DVO|
Аудио №2: английский / AC3 / 2.0 / 48 kHz / 192 kbps / 16 bit
Навигация по главам: есть
Семпл
Релиз от: by -Lexx-
Исходник: Adrift in Manhattan.2007.BDRemux [tnx FREEDONOR]

General
Unique ID : 180810170121332322037223145619260280531 (0x8806C5A799ECCFF7B49A040453E58ED3)
Complete name : H:Adrift.in. Manhattan.2007.BDRip-AVC by R.G. Resident.mkv
Format : Matroska
Format version : Version 4 / Version 2
File size : 1.75 GiB
Duration : 1h 30mn
Overall bit rate : 2 774 Kbps
Movie name : Adrift in Manhattan (2007) BDRip-AVC by R.G. Resident
Encoded date : UTC 2016-04-16 19:23:06
Writing application : mkvmerge v9.0.1 ('Obstacles') 64bit
Writing library : libebml v1.3.3 + libmatroska v1.4.4
DURATION : 01:22:16.864000000
NUMBER_OF_FRAMES : 756
NUMBER_OF_BYTES : 27122
_STATISTICS_WRITING_APP : mkvmerge v9.0.1 ('Obstacles') 64bit
_STATISTICS_WRITING_DATE_UTC : 2016-04-16 19:23:06
_STATISTICS_TAGS : BPS DURATION NUMBER_OF_FRAMES NUMBER_OF_BYTES

Video
ID : 1
Format : AVC
Format/Info : Advanced Video Codec
Format profile : High@L4.1
Format settings, CABAC : Yes
Format settings, ReFrames : 10 frames
Codec ID : V_MPEG4/ISO/AVC
Duration : 1h 30mn
Bit rate : 2 325 Kbps
Width : 1 024 pixels
Height : 576 pixels
Display aspect ratio : 16:9
Frame rate : 23.976 fps
Color space : YUV
Chroma subsampling : 4:2:0
Bit depth : 8 bits
Scan type : Progressive
Bits/(Pixel*Frame) : 0.164
Stream size : 1.43 GiB (82%)
Title : -Lexx-
Writing library : x264 core 146 r2538 121396c
Encoding settings : cabac=1 / ref=10 / deblock=1:-3:-3 / analyse=0x3:0x113 / me=umh / subme=11 / psy=1 / psy_rd=1.00:0.10 / mixed_ref=1 / me_range=48 / chroma_me=1 / trellis=2 / 8x8dct=1 / cqm=0 / deadzone=21,11 / fast_pskip=0 / chroma_qp_offset=-3 / threads=6 / lookahead_threads=2 / sliced_threads=0 / nr=0 / decimate=1 / interlaced=0 / bluray_compat=0 / constrained_intra=0 / bframes=11 / b_pyramid=2 / b_adapt=2 / b_bias=0 / direct=3 / weightb=1 / open_gop=0 / weightp=2 / keyint=240 / keyint_min=23 / scenecut=40 / intra_refresh=0 / rc=2pass / mbtree=0 / bitrate=2325 / ratetol=1.0 / qcomp=0.60 / qpmin=0 / qpmax=69 / qpstep=4 / cplxblur=20.0 / qblur=0.5 / ip_ratio=1.40 / pb_ratio=1.30 / aq=1:1.00
Language : English
Default : Yes
Forced : No
DURATION : 01:30:26.088000000
NUMBER_OF_FRAMES : 130096
NUMBER_OF_BYTES : 1576075926
_STATISTICS_WRITING_APP : mkvmerge v9.0.1 ('Obstacles') 64bit
_STATISTICS_WRITING_DATE_UTC : 2016-04-16 19:23:06
_STATISTICS_TAGS : BPS DURATION NUMBER_OF_FRAMES NUMBER_OF_BYTES

Audio #1
ID : 2
Format : AC-3
Format/Info : Audio Coding 3
Mode extension : CM (complete main)
Codec ID : A_AC3
Duration : 1h 30mn
Bit rate mode : Constant
Bit rate : 256 Kbps
Channel(s) : 2 channels
Channel positions : Front: L R
Sampling rate : 48.0 KHz
Bit depth : 16 bits
Compression mode : Lossy
Stream size : 166 MiB (9%)
Title : DVO, Так Треба Продакшн
Language : Russian
Default : Yes
Forced : No

Audio #2
ID : 3
Format : AC-3
Format/Info : Audio Coding 3
Mode extension : CM (complete main)
Codec ID : A_AC3
Duration : 1h 30mn
Bit rate mode : Constant
Bit rate : 192 Kbps
Channel(s) : 2 channels
Channel positions : Front: L R
Sampling rate : 48.0 KHz
Bit depth : 16 bits
Compression mode : Lossy
Stream size : 124 MiB (7%)
Title : Оригинал
Language : English
Default : No
Forced : No

Text
ID : 4
Format : UTF-8
Codec ID : S_TEXT/UTF8
Codec ID/Info : UTF-8 Plain Text
Title : Full
Language : English
Default : No
Forced : No

Menu
00:00:00.000 : en:Chapter 1
00:09:05.545 : en:Chapter 2
00:18:11.090 : en:Chapter 3
00:27:16.635 : en:Chapter 4
00:36:22.180 : en:Chapter 5
00:45:27.725 : en:Chapter 6
00:54:33.270 : en:Chapter 7
01:03:38.815 : en:Chapter 8
01:12:44.360 : en:Chapter 9
01:21:49.905 : en:Chapter 10



Скачать Потерянные.в.Манхеттене.Adrift.in.Manhattan.(Альфредо.Родригес.де.Вилла).[2007.драма.BDRip-AVC].[DVO]+[Sub].torrent без регистрации
Золото ЗОЛОТАЯ РАЗДАЧА! СКАЧАННОЕ НЕ ЗАСЧИТЫВАЕТСЯ! Золото
Дата: Зарегистрирован   [ Тип: внешний ] Как тут cкачать?
MAGNET ссылка
MAGNET ссылка


Скачать .torrent

18 KB

Статус: проверено DHT
Скачан: торрент - 34 раз, раздача полностью - 1 раз
Размер: 1,75 GB
Оценка:  - (Голосов: 0)
Поблагодарили: 1
Поделиться ссылкой на эту раздачу с друзьями:
В контактеFacebookОдноклассникиTwitterLivejournalМой МирLiveinternet
 

 
Показать сообщения:    


Вы не можете начинать темы
Вы не можете отвечать на сообщения
Вы не можете редактировать свои сообщения
Вы не можете удалять свои сообщения
Вы не можете голосовать в опросах
Вы не можете прикреплять файлы к сообщениям
Вы можете скачивать файлы