Loading...
Error

Скачать Ранчо / The Ranch (сезон 01) (Дэвид Трейнер) [2016, ситком, WEBRip] [720p] [MVO (Несмертельное оружие)]+[Eng] торрент без регистрации

 
Статистика раздачи
Размер:  8,07 GB   |    Скачан:  299 раз
Сидов:  1  [  0 KB/s  ]  
 
Автор Сообщение

МихаНЕзатор

[] 


«Сезон: 1 / Серии: 1-10 (10)»

Информация о сериале
Название: Ранчо
Оригинальное название: The Ranch
Год выхода: 2016
Страна: США
Студия: Netflix
Жанр: ситком
Продолжительность: 10 x ~30 мин.

Перевод: Любительский (многоголосый закадровый) - [Несмертельное оружие]
Cубтитры: отсутствуют

Режиссер: Дэвид Трейнер

В ролях: Эштон Кутчер, Дэнни Мастерсон, Сэм Эллиотт, Дебра Уингер, Элиша Катберт, Грэйди Ли Ричмонд, Келли Госс, Брэт Харрисон, Бэрри Корбин, Итан Сапли, Мегин Прайс, Джон Крайер и др.

Описание: Действие в сериале «Ранчо», сценарий к которому написали Дон Рио и Джим Паттерсон (Два с половиной человека), происходит на ранчо в Колорадо, куда после короткой полупрофессиональной карьеры футболиста возвращается персонаж Эштона Кутчера, чтобы заняться семейным бизнесом со своим братом, роль которого исполнил Дэнни Мастерсон.



Релиз от: Несмертельное оружие

Файл
Качество: WEBRip 720p
Формат: MKV
Видео кодек: H264
Аудио кодек: AC3

Видео: 1280x720 (16:9), 23.976 fps, ~4240 Kbps, 0.150 bit/pixel
| Аудио #1: 48 kHz, AC3 Dolby Digital, 2/0 (L,R) ch, ~192.00 kbps | Rus | MVO
| Аудио #2: 48 kHz, AC3 Dolby Digital, 3/2 (L,C,R,l,r) + LFE ch, ~384.00 kbps | Eng | Original

АНОНСЫ ПОПУЛЯРНЫХ РАЗДАЧ
Эпизод: 01 - «Возвращение на Родину» (Back Where I Come From)

Эпизод: 02 - «Некоторые люди меняются» (Some People Change)

Эпизод: 03 - «Футболисты» (The Boys of Fall)

Эпизод: 04 - «Стал немного сумасшедшим» (Got a Little Crazy)

Эпизод: 05 - «Американские дети» (American Kids)

Эпизод: 06 - «Лучше как память» (Better as a Memory)

Эпизод: 07 - «Я не могу пойти туда» (I Can't Go There)

Эпизод: 08 - «Пока не потеряешь» (Til It's Gone)

Эпизод: 09 - «Куда катится моя жизнь» (There Goes My Life)

Эпизод: 10 - «Вниз по дороге» (Down the Road)

General
Unique ID : 246127718341478819824602200210978599509 (0xB92A796B0DAF83D4A3463359E4CB7255)
Complete name : The.Ranch.S01E01.Back.Where.I.Come.From.WEBRip.720p.H.264.RUS.-Nesmertelnoe.oruzhie.mkv
Format : Matroska
Format version : Version 2
File size : 874 MiB
Duration : 28mn 48s
Overall bit rate : 4 240 Kbps
Movie name : Ранчо / The Ranch / Сезон: 1 / Эпизод: 01 - Возвращение на Родину
Encoded date : UTC 2016-04-04 19:48:41
Writing application : mkvmerge v5.2.1 ('A Far Off Place') built on Jan 2 2012 23:21:10
Writing library : libebml v1.2.3 + libmatroska v1.3.0

Video
ID : 1
Format : AVC
Format/Info : Advanced Video Codec
Format profile : High@L4.1
Format settings, CABAC : Yes
Format settings, ReFrames : 5 frames
Codec ID : V_MPEG4/ISO/AVC
Duration : 28mn 48s
Bit rate : 3 324 Kbps
Width : 1 280 pixels
Height : 720 pixels
Display aspect ratio : 16:9
Frame rate mode : Constant
Frame rate : 23.976 (24000/1001) fps
Color space : YUV
Chroma subsampling : 4:2:0
Bit depth : 8 bits
Scan type : Progressive
Bits/(Pixel*Frame) : 0.150
Stream size : 685 MiB (78%)
Title : Релиз от: Несмертельное оружие
Writing library : x264 core 148 r2665 a01e339
Encoding settings : cabac=1 / ref=5 / deblock=1:-3:-3 / analyse=0x3:0x113 / me=umh / subme=8 / psy=1 / psy_rd=1.00:0.00 / mixed_ref=1 / me_range=16 / chroma_me=1 / trellis=1 / 8x8dct=1 / cqm=0 / deadzone=21,11 / fast_pskip=1 / chroma_qp_offset=-2 / threads=12 / lookahead_threads=2 / sliced_threads=0 / nr=0 / decimate=1 / interlaced=0 / bluray_compat=0 / constrained_intra=0 / bframes=3 / b_pyramid=2 / b_adapt=2 / b_bias=0 / direct=3 / weightb=1 / open_gop=0 / weightp=2 / keyint=250 / keyint_min=23 / scenecut=40 / intra_refresh=0 / rc_lookahead=50 / rc=crf / mbtree=1 / crf=18.0 / qcomp=0.60 / qpmin=0 / qpmax=69 / qpstep=4 / ip_ratio=1.40 / aq=1:1.00
Language : English
Default : Yes
Forced : No
Color range : Limited
Matrix coefficients : BT.709

Audio #1
ID : 2
Format : AC-3
Format/Info : Audio Coding 3
Mode extension : CM (complete main)
Format settings, Endianness : Big
Codec ID : A_AC3
Duration : 28mn 48s
Bit rate mode : Constant
Bit rate : 192 Kbps
Channel(s) : 2 channels
Channel positions : Front: L R
Sampling rate : 48.0 KHz
Frame rate : 31.250 fps (1536 spf)
Compression mode : Lossy
Stream size : 39.6 MiB (5%)
Title : MVO (Несмертельное оружие)
Language : Russian
Default : Yes
Forced : No

Audio #2
ID : 3
Format : AC-3
Format/Info : Audio Coding 3
Mode extension : CM (complete main)
Format settings, Endianness : Big
Codec ID : A_AC3
Duration : 28mn 48s
Bit rate mode : Constant
Bit rate : 640 Kbps
Channel(s) : 6 channels
Channel positions : Front: L C R, Side: L R, LFE
Sampling rate : 48.0 KHz
Frame rate : 31.250 fps (1536 spf)
Compression mode : Lossy
Stream size : 132 MiB (15%)
Title : Original
Language : English
Default : No
Forced : No




Скачать Ранчо.The.Ranch.(сезон.01).(Дэвид.Трейнер).[2016.ситком.WEBRip].[720p].[MVO.(Несмертельное.оружие)]+[Eng].torrent без регистрации
Золото ЗОЛОТАЯ РАЗДАЧА! СКАЧАННОЕ НЕ ЗАСЧИТЫВАЕТСЯ! Золото
Дата: Зарегистрирован   [ Тип: внутренний ] Как тут cкачать?
MAGNET ссылка
MAGNET ссылка


Скачать .torrent

22 KB

Статус: проверено DHT
Скачан: торрент - 299 раз, раздача полностью - 1 раз
Размер: 8,07 GB
Оценка:  - (Голосов: 0)
Поблагодарили: 0
Поделиться ссылкой на эту раздачу с друзьями:
В контактеFacebookОдноклассникиTwitterLivejournalМой МирLiveinternet
 

 
Показать сообщения:    


Вы не можете начинать темы
Вы не можете отвечать на сообщения
Вы не можете редактировать свои сообщения
Вы не можете удалять свои сообщения
Вы не можете голосовать в опросах
Вы не можете прикреплять файлы к сообщениям
Вы можете скачивать файлы