Loading...
Error

Скачать Что случилось прошлой ночью / About Last Night... (Эдвард Цвик) [1986, драма, мелодрама, комедия, ..., DVDRip-AVC] [MVO]+[DVO]+[AVO]+[Sub] торрент без регистрации

 
Статистика раздачи
Размер:  2,98 GB   |    Скачан:  41 раз
Сидов:  1  [  0 KB/s  ]  
 
Автор Сообщение

Marsianka

[] 

Название: Что случилось прошлой ночью
Оригинальное название: About Last Night...
Год выхода: 1986
Страна: США
Студия: TriStar Pictures, Delphi V Productions
Продолжительность: 01:53:12
Жанр: драма, мелодрама, комедия, ...

Режиссер: Эдвард Цвик
В ролях: Роб Лоу, Деми Мур, Джеймс Белуши, Элизабет Перкинс, Джордж ДиЧенцо, Майкл Олдредж, Робин Томас, Донна Гиббонс, Меган Маллалли, Патриция Дафф, ...

О фильме: Дэнни наслаждается молодостью, привольной жизнью и случайными связями. Он не верит в настоящее чувство и нис кем не остается дольше одной ночи. Встреча с Дебби была похожа на тысячи других — с одним исключением: на следующий день Дэнни захотел увидеть девушку снова, а вскоре предложил ей жить вместе. Но современный Казанова не был создан для долгих и прочных отношений. И тогда он оставил Дебби, не подозревая, что совершает роковую ошибку…



Кодек: x264
Качество: DVDRip-AVC
Видео: 716x540 , 3000 kbps, 23,976 fps

Профессиональный (многоголосный, закадровый) Первый канал
Профессиональный (двуголосый, закадровый)
Авторский (одноголосый, закадровый) Володарский Леонид Вениаминович
Аудио #1: AC-3, 2 ch, 192 kbps (Rus) - MVO Первый канал
Аудио #2: AC-3, 2 ch, 192 kbps (Rus) - DVO
Аудио #3: AC-3, 2 ch, 192 kbps (Rus) - AVO Володарский Леонид Вениаминович
Аудио #4: AC-3, 2 ch, 192 kbps (Eng)
Субтитры: Английские (VobSub)
За исходник спасибо - ascn

Сравниваем DVD на предмет наполнения кадра с BD:



x264 [info]: frame I:994 Avg QP:16.52 size: 62166
x264 [info]: frame P:30814 Avg QP:18.81 size: 28539
x264 [info]: frame B:131056 Avg QP:20.64 size: 12253
x264 [info]: consecutive B-frames: 0.8% 0.8% 3.7% 14.1% 17.6% 49.9% 8.0% 2.8% 1.2% 0.7% 0.2% 0.2% 0.1%

Общее
Уникальный идентификатор : 170626588329474004205568532179293376795 (0x805D7C4ECA2F97008973CD5705BD111B)
Полное имя : Что случилось прошлой ночью (About Last Night...) 1986 DVDRip.mkv
Формат : Matroska
Версия формата : Version 2
Размер файла : 2,98 Гбайт
Продолжительность : 1 ч. 53 м.
Общий поток : 3772 Кбит/сек
Дата кодирования : UTC 2016-04-17 09:41:29
Программа кодирования : mkvmerge v4.0.0 ('The Stars were mine') сборка от Jun 6 2010 16:18:42
Библиотека кодирования : libebml v1.0.0 + libmatroska v1.0.0

Видео
Идентификатор : 1
Формат : AVC
Формат/Информация : Advanced Video Codec
Профиль формата : High@L4.1
Параметр CABAC формата : Да
Параметр ReFrames формата : 12 кадров
Идентификатор кодека : V_MPEG4/ISO/AVC
Продолжительность : 1 ч. 53 м.
Битрейт : 3000 Кбит/сек
Ширина : 716 пикселей
Высота : 540 пикселей
Соотношение сторон : 4:3
Режим частоты кадров : Постоянный
Частота кадров : 23,976 кадра/сек
Цветовое пространство : YUV
Субдискретизация насыщенности : 4:2:0
Битовая глубина : 8 бит
Тип развёртки : Прогрессивная
Бит/(Пиксели*Кадры) : 0.324
Размер потока : 2,32 Гбайт (78%)
Библиотека кодирования : x264 core 146 r2538 121396c
Настройки программы : cabac=1 / ref=12 / deblock=1:-3:-3 / analyse=0x3:0x133 / me=umh / subme=11 / psy=1 / psy_rd=1.02:0.15 / mixed_ref=1 / me_range=32 / chroma_me=1 / trellis=2 / 8x8dct=1 / cqm=0 / deadzone=21,11 / fast_pskip=0 / chroma_qp_offset=-3 / threads=12 / lookahead_threads=2 / sliced_threads=0 / nr=0 / decimate=0 / interlaced=0 / bluray_compat=0 / constrained_intra=0 / bframes=12 / b_pyramid=2 / b_adapt=2 / b_bias=0 / direct=3 / weightb=1 / open_gop=0 / weightp=2 / keyint=240 / keyint_min=23 / scenecut=40 / intra_refresh=0 / rc=2pass / mbtree=0 / bitrate=3000 / ratetol=1.0 / qcomp=0.60 / qpmin=0 / qpmax=69 / qpstep=4 / cplxblur=20.0 / qblur=0.5 / ip_ratio=1.40 / pb_ratio=1.30 / aq=1:0.80
Язык : English
Default : Нет
Forced : Нет

Аудио #1
Идентификатор : 2
Формат : AC-3
Формат/Информация : Audio Coding 3
Расширение режима : CM (complete main)
Параметр Endianness формата : Big
Идентификатор кодека : A_AC3
Продолжительность : 1 ч. 53 м.
Вид битрейта : Постоянный
Битрейт : 192 Кбит/сек
Каналы : 2 канала
Расположение каналов : Front: L R
Частота : 48,0 КГц
Метод сжатия : С потерями
Размер потока : 155 Мбайт (5%)
Заголовок : MVO Первый канал
Язык : Russian
Default : Нет
Forced : Нет

Аудио #2
Идентификатор : 3
Формат : AC-3
Формат/Информация : Audio Coding 3
Расширение режима : CM (complete main)
Параметр Endianness формата : Big
Идентификатор кодека : A_AC3
Продолжительность : 1 ч. 53 м.
Вид битрейта : Постоянный
Битрейт : 192 Кбит/сек
Каналы : 2 канала
Расположение каналов : Front: L R
Частота : 48,0 КГц
Метод сжатия : С потерями
Размер потока : 155 Мбайт (5%)
Заголовок : DVO
Язык : Russian
Default : Нет
Forced : Нет

Аудио #3
Идентификатор : 4
Формат : AC-3
Формат/Информация : Audio Coding 3
Расширение режима : CM (complete main)
Параметр Endianness формата : Big
Идентификатор кодека : A_AC3
Продолжительность : 1 ч. 53 м.
Вид битрейта : Постоянный
Битрейт : 192 Кбит/сек
Каналы : 2 канала
Расположение каналов : Front: L R
Частота : 48,0 КГц
Метод сжатия : С потерями
Размер потока : 155 Мбайт (5%)
Заголовок : AVO Володарский Леонид Вениаминович
Язык : Russian
Default : Нет
Forced : Нет

Аудио #4
Идентификатор : 5
Формат : AC-3
Формат/Информация : Audio Coding 3
Профиль формата : Dolby Digital
Расширение режима : CM (complete main)
Параметр Endianness формата : Big
Идентификатор кодека : A_AC3
Продолжительность : 1 ч. 53 м.
Вид битрейта : Постоянный
Битрейт : 192 Кбит/сек
Каналы : 2 канала
Расположение каналов : Front: L R
Частота : 48,0 КГц
Метод сжатия : С потерями
Размер потока : 155 Мбайт (5%)
Язык : English
Default : Нет
Forced : Нет

Текст
Идентификатор : 6
Формат : VobSub
Режим смешивания : zlib
Идентификатор кодека : S_VOBSUB
Идентификатор кодека/Информация : Picture based subtitle format used on DVDs
Язык : English
Default : Нет
Forced : Нет



Скачать Что.случилось.прошлой.ночью.About.Last.Night.(Эдвард.Цвик).[1986.драма.мелодрама.комедия.DVDRip-AVC].[MVO]+[DVO]+[AVO]+[Sub].torrent без регистрации
Золото ЗОЛОТАЯ РАЗДАЧА! СКАЧАННОЕ НЕ ЗАСЧИТЫВАЕТСЯ! Золото
Дата: Зарегистрирован   [ Тип: внутренний ] Как тут cкачать?
MAGNET ссылка
MAGNET ссылка


Скачать .torrent

16 KB

Статус: проверено DHT
Скачан: торрент - 41 раз, раздача полностью - 2 раз
Размер: 2,98 GB
Оценка:  - (Голосов: 0)
Поблагодарили: 1
Поделиться ссылкой на эту раздачу с друзьями:
В контактеFacebookОдноклассникиTwitterLivejournalМой МирLiveinternet
 

 
Показать сообщения:    


Вы не можете начинать темы
Вы не можете отвечать на сообщения
Вы не можете редактировать свои сообщения
Вы не можете удалять свои сообщения
Вы не можете голосовать в опросах
Вы не можете прикреплять файлы к сообщениям
Вы можете скачивать файлы