Loading...
Error

Скачать Виновен вне подозрений / Guilty As Sin (Сидни Люмет) [1993, триллер, драма, криминал, DVDRip-AVC] [DVO]x2+[AVO]+[Sub]x2 торрент без регистрации

 
Статистика раздачи
Размер:  3,02 GB   |    Скачан:  32 раза

Полного источника не было: 30 минут

 
Автор Сообщение

Marsianka

[] 

Название: Виновен вне подозрений
Оригинальное название: Guilty As Sin
Год выхода: 1993
Страна: США
Студия: Hollywood Pictures
Продолжительность: 01:47:15
Жанр: триллер, драма, криминал

Режиссер: Сидни Люмет
В ролях: Ребекка Де Морнэй, Дон Джонсон, Стивен Лэнг, Джек Уорден, Дэна Айви, Луис Гузман, Рон Уайт, Норма Делль’Аньезе, Шон МакКэнн, Роберт Кеннеди, ...

О фильме: Дженнифер — блестящий адвокат, которой удалось спасти не одного невинного человека. Дэвид — мужчина ее мечты, случайно оказавшийся на скамье подсудимых после самоубийства жены. Или не случайно?…



Кодек: x264
Качество: DVDRip-AVC
Видео: 844x468 , 3000 kbps, 23,976 fps

Профессиональный (двуголосый, закадровый) НТВ+
Профессиональный (двуголосый, закадровый) Видеосервис
Авторский (одноголосый, закадровый) Гаврилов Андрей Юрьевич
Аудио #1: AC-3, 2 ch, 192 kbps (Rus) - DVO НТВ+
Аудио #2: AC-3, 2 ch, 192 kbps (Rus) - DVO Видеосервис
Аудио #3: AC-3, 2 ch, 192 kbps (Rus) - AVO Гаврилов Андрей Юрьевич
Аудио #4: AC-3, 6 ch, 448 kbps (Eng)
Субтитры: Английские, Английские (SDH)

x264 [info]: frame I:1033 Avg QP:17.40 size: 58564
x264 [info]: frame P:25852 Avg QP:19.58 size: 27762
x264 [info]: frame B:127423 Avg QP:21.36 size: 12828
x264 [info]: consecutive B-frames: 1.0% 0.8% 2.8% 4.1% 4.3% 67.9% 2.9% 0.7% 3.2% 0.3% 0.6% 11.1% 0.3%

Общее
Уникальный идентификатор : 222544557060142303233411910106004404116 (0xA76C85CBC066BAEA956522A7E32D3794)
Полное имя : Виновен вне подозрений (Guilty As Sin) 1993 DVDRip.mkv
Формат : Matroska
Версия формата : Version 2
Размер файла : 3,02 Гбайт
Продолжительность : 1 ч. 47 м.
Общий поток : 4026 Кбит/сек
Дата кодирования : UTC 2016-04-10 10:09:03
Программа кодирования : mkvmerge v4.0.0 ('The Stars were mine') сборка от Jun 6 2010 16:18:42
Библиотека кодирования : libebml v1.0.0 + libmatroska v1.0.0

Видео
Идентификатор : 1
Формат : AVC
Формат/Информация : Advanced Video Codec
Профиль формата : High@L4.1
Параметр CABAC формата : Да
Параметр ReFrames формата : 12 кадров
Идентификатор кодека : V_MPEG4/ISO/AVC
Продолжительность : 1 ч. 47 м.
Битрейт : 3000 Кбит/сек
Ширина : 844 пикселя
Высота : 468 пикселей
Соотношение сторон : 16:9
Режим частоты кадров : Постоянный
Частота кадров : 23,976 кадра/сек
Цветовое пространство : YUV
Субдискретизация насыщенности : 4:2:0
Битовая глубина : 8 бит
Тип развёртки : Прогрессивная
Бит/(Пиксели*Кадры) : 0.317
Размер потока : 2,19 Гбайт (73%)
Библиотека кодирования : x264 core 146 r2538 121396c
Настройки программы : cabac=1 / ref=12 / deblock=1:-3:-3 / analyse=0x3:0x133 / me=umh / subme=11 / psy=1 / psy_rd=1.00:0.00 / mixed_ref=1 / me_range=32 / chroma_me=1 / trellis=2 / 8x8dct=1 / cqm=0 / deadzone=21,11 / fast_pskip=0 / chroma_qp_offset=-2 / threads=12 / lookahead_threads=2 / sliced_threads=0 / nr=0 / decimate=0 / interlaced=0 / bluray_compat=0 / constrained_intra=0 / bframes=12 / b_pyramid=2 / b_adapt=2 / b_bias=0 / direct=3 / weightb=1 / open_gop=0 / weightp=2 / keyint=240 / keyint_min=23 / scenecut=40 / intra_refresh=0 / rc=2pass / mbtree=0 / bitrate=3000 / ratetol=1.0 / qcomp=0.60 / qpmin=0 / qpmax=69 / qpstep=4 / cplxblur=20.0 / qblur=0.5 / ip_ratio=1.40 / pb_ratio=1.30 / aq=1:0.80
Язык : English
Default : Нет
Forced : Нет

Аудио #1
Идентификатор : 2
Формат : AC-3
Формат/Информация : Audio Coding 3
Расширение режима : CM (complete main)
Параметр Endianness формата : Big
Идентификатор кодека : A_AC3
Продолжительность : 1 ч. 47 м.
Вид битрейта : Постоянный
Битрейт : 192 Кбит/сек
Каналы : 2 канала
Расположение каналов : Front: L R
Частота : 48,0 КГц
Метод сжатия : С потерями
Размер потока : 147 Мбайт (5%)
Заголовок : DVO НТВ+
Язык : Russian
Default : Нет
Forced : Нет

Аудио #2
Идентификатор : 3
Формат : AC-3
Формат/Информация : Audio Coding 3
Расширение режима : CM (complete main)
Параметр Endianness формата : Big
Идентификатор кодека : A_AC3
Продолжительность : 1 ч. 47 м.
Вид битрейта : Постоянный
Битрейт : 192 Кбит/сек
Каналы : 2 канала
Расположение каналов : Front: L R
Частота : 48,0 КГц
Метод сжатия : С потерями
Размер потока : 147 Мбайт (5%)
Заголовок : DVO Видеосервис
Язык : Russian
Default : Нет
Forced : Нет

Аудио #3
Идентификатор : 4
Формат : AC-3
Формат/Информация : Audio Coding 3
Расширение режима : CM (complete main)
Параметр Endianness формата : Big
Идентификатор кодека : A_AC3
Продолжительность : 1 ч. 47 м.
Вид битрейта : Постоянный
Битрейт : 192 Кбит/сек
Каналы : 2 канала
Расположение каналов : Front: L R
Частота : 48,0 КГц
Метод сжатия : С потерями
Размер потока : 147 Мбайт (5%)
Заголовок : AVO Гаврилов Андрей Юрьевич
Язык : Russian
Default : Нет
Forced : Нет

Аудио #4
Идентификатор : 5
Формат : AC-3
Формат/Информация : Audio Coding 3
Расширение режима : CM (complete main)
Параметр Endianness формата : Big
Идентификатор кодека : A_AC3
Продолжительность : 1 ч. 47 м.
Вид битрейта : Постоянный
Битрейт : 448 Кбит/сек
Каналы : 6 каналов
Расположение каналов : Front: L C R, Side: L R, LFE
Частота : 48,0 КГц
Метод сжатия : С потерями
Размер потока : 344 Мбайт (11%)
Язык : English
Default : Нет
Forced : Нет

Текст #1
Идентификатор : 6
Формат : UTF-8
Идентификатор кодека : S_TEXT/UTF8
Идентификатор кодека/Информация : UTF-8 Plain Text
Язык : English
Default : Нет
Forced : Нет

Текст #2
Идентификатор : 7
Формат : UTF-8
Идентификатор кодека : S_TEXT/UTF8
Идентификатор кодека/Информация : UTF-8 Plain Text
Заголовок : SDH
Язык : English
Default : Нет
Forced : Нет



Скачать Виновен.вне.подозрений.Guilty.As.Sin.(Сидни.Люмет).[1993.триллер.драма.криминал.DVDRip-AVC].[DVO]x2+[AVO]+[Sub]x2.torrent без регистрации
Золото ЗОЛОТАЯ РАЗДАЧА! СКАЧАННОЕ НЕ ЗАСЧИТЫВАЕТСЯ! Золото
Дата: Зарегистрирован   [ Тип: внутренний ] Как тут cкачать?
MAGNET ссылка
MAGNET ссылка


Скачать .torrent

16 KB

Статус: проверено DHT
Скачан: торрент - 32 раз, раздача полностью - 1 раз
Размер: 3,02 GB
Оценка:  - (Голосов: 0)
Поблагодарили: 1
Поделиться ссылкой на эту раздачу с друзьями:
В контактеFacebookОдноклассникиTwitterLivejournalМой МирLiveinternet
 

 
Показать сообщения:    


Вы не можете начинать темы
Вы не можете отвечать на сообщения
Вы не можете редактировать свои сообщения
Вы не можете удалять свои сообщения
Вы не можете голосовать в опросах
Вы не можете прикреплять файлы к сообщениям
Вы можете скачивать файлы