Loading...
Error

Скачать Пять легких пьес / Five Easy Pieces (Боб Рейфелсон) [1970 г., драма, HDRip] [MVO]+[DVO] торрент без регистрации

 
Статистика раздачи
Размер:  1,46 GB   |    Скачан:  44 раза
Сидов:  1  [  0 KB/s  ]  
 
Автор Сообщение

Shara

[] 

Пять легких пьес / Five Easy Pieces
Год выпуска: 1970
Страна: США
Жанр: драма
Продолжительность: 01:38:24.314 (141562 frames)
Перевод: Профессиональный (многоголосый, закадровый) + Профессиональный (двухголосый, закадровый)
Русские субтитры: нет
Режиссер: Боб Рейфелсон / Bob Rafelson
В ролях: Джек Николсон, Карен Блэк, Сьюзен Энспак, Фэнни Флэгг, Билли Грин Буш, Сэлли Стразерс, Марлена МакГуайр, Ричард Стал, Лоис Смит, Ральф Уэйт
Описание: Нефтяник Роберт Дюпи живет в одном из городков Техаса. Его спутница жизни работает официанткой в местной забегаловке. Никто не знает, что когда-то Роберт был талантливым пианистом, но поставил крест на карьере музыканта, бросил родственников и уехал в Техас. Но однажды ему приходит сообщение, что его отец при смерти.



Качество: HDRip
Формат: AVI
Видео кодек: XviD
Аудио кодек: AC3
Видео: 720x384 (1.88:1), 23.976 fps, XviD MPEG-4 ~1727 kbps avg, 0.26 bit/pixel
Audio1: 48 kHz, AC3 Dolby Digital, 2/0 (L,R) ch, ~192.00 kbps avg - многоголоска
Audio2: 48 kHz, AC3 Dolby Digital, 2/0 (L,R) ch, ~192.00 kbps avg - двухголоска
General
Complete name : D:\001 МОИ РАЗДАЧИ\Пять легких пьес 1,46\pyat_legkih_pjes_1.46_[torrents.ru]_by_bm11.avi
Format : AVI
Format/Info : Audio Video Interleave
File size : 1.46 GiB
Duration : 1h 38mn
Overall bit rate : 2 126 Kbps
Writing application : VirtualDubMod 1.5.10.2 (build 2540/release)
Writing library : VirtualDubMod build 2540/release
Video
Format : MPEG-4 Visual
Format profile : Streaming Video@L1
Format settings, BVOP : Yes
Format settings, QPel : No
Format settings, GMC : No warppoints
Format settings, Matrix : Custom
Codec ID : XVID
Codec ID/Hint : XviD
Duration : 1h 38mn
Bit rate : 1 728 Kbps
Width : 720 pixels
Height : 384 pixels
Display aspect ratio : 1.875
Frame rate : 23.976 fps
Resolution : 24 bits
Colorimetry : 4:2:0
Scan type : Progressive
Bits/(Pixel*Frame) : 0.261
Stream size : 1.19 GiB (81%)
Writing library : XviD 50
Audio
Format : AC-3
Format/Info : Audio Coding 3
Codec ID : 2000
Duration : 1h 38mn
Bit rate mode : Constant
Bit rate : 192 Kbps
Channel(s) : 2 channels
Channel positions : L R
Sampling rate : 48.0 KHz
Stream size : 135 MiB (9%)
Alignment : Split accross interleaves
Interleave, duration : 42 ms (1.00 video frame)
Interleave, preload duration : 500 ms
Audio
Format : AC-3
Format/Info : Audio Coding 3
Codec ID : 2000
Duration : 1h 38mn
Bit rate mode : Constant
Bit rate : 192 Kbps
Channel(s) : 2 channels
Channel positions : L R
Sampling rate : 48.0 KHz
Stream size : 135 MiB (9%)
Alignment : Split accross interleaves
Interleave, duration : 42 ms (1.00 video frame)
Interleave, preload duration : 500 ms



Скачать Пять.легких.пьес.Five.Easy.Pieces.(Боб.Рейфелсон).[1970.г.драма.HDRip].[MVO]+[DVO].torrent без регистрации
Золото ЗОЛОТАЯ РАЗДАЧА! СКАЧАННОЕ НЕ ЗАСЧИТЫВАЕТСЯ! Золото
Дата: Зарегистрирован   [ Тип: внутренний ] Как тут cкачать?
MAGNET ссылка
MAGNET ссылка


Скачать .torrent

15 KB

Статус: проверено DHT
Скачан: торрент - 44 раз, раздача полностью - 4 раз
Размер: 1,46 GB
Оценка:  - (Голосов: 0)
Поблагодарили: 0
Поделиться ссылкой на эту раздачу с друзьями:
В контактеFacebookОдноклассникиTwitterLivejournalМой МирLiveinternet
 

 
Показать сообщения:    


Вы не можете начинать темы
Вы не можете отвечать на сообщения
Вы не можете редактировать свои сообщения
Вы не можете удалять свои сообщения
Вы не можете голосовать в опросах
Вы не можете прикреплять файлы к сообщениям
Вы можете скачивать файлы