Loading...
Error

Скачать Пять легких пьес / Five Easy Pieces (Боб Рейфелсон) [1970 г., драма, HDRip] [MVO] торрент без регистрации

 
Статистика раздачи
Размер:  741 MB   |    Скачан:  38 раз

Полного источника не было: 25 минут

 
Автор Сообщение

Shara

[] 

Пять легких пьес / Five Easy Pieces
Год выпуска: 1970
Страна: США
Жанр: драма
Продолжительность: 01:38:24.314 (141562 frames)
Перевод: Профессиональный (многоголосый, закадровый)
Русские субтитры: нет
Режиссер: Боб Рейфелсон / Bob Rafelson
В ролях: Джек Николсон, Карен Блэк, Сьюзен Энспак, Фэнни Флэгг, Билли Грин Буш, Сэлли Стразерс, Марлена МакГуайр, Ричард Стал, Лоис Смит, Ральф Уэйт
Описание: Нефтяник Роберт Дюпи живет в одном из городков Техаса. Его спутница жизни работает официанткой в местной забегаловке. Никто не знает, что когда-то Роберт был талантливым пианистом, но поставил крест на карьере музыканта, бросил родственников и уехал в Техас. Но однажды ему приходит сообщение, что его отец при смерти.



Качество: HDRip
Формат: AVI
Видео кодек: XviD
Аудио кодек: MP3
Видео: 688x368 (1.87:1), 23.976 fps, XviD MPEG-4 ~914 kbps avg, 0.15 bit/pixel
Audio: 48 kHz, MPEG Layer 3, 2 ch, ~128.00 kbps avg
General
Complete name : D:\001 МОИ РАЗДАЧИ\Пять легких пьес 745\pyat_legkih_pjes_745_[torrents.ru]_by_bm11.avi
Format : AVI
Format/Info : Audio Video Interleave
File size : 741 MiB
Duration : 1h 38mn
Overall bit rate : 1 052 Kbps
Writing application : VirtualDubMod 1.5.10.2 (build 2540/release)
Writing library : VirtualDubMod build 2540/release
Video
Format : MPEG-4 Visual
Format profile : Streaming Video@L1
Format settings, BVOP : Yes
Format settings, QPel : No
Format settings, GMC : No warppoints
Format settings, Matrix : Custom
Codec ID : XVID
Codec ID/Hint : XviD
Duration : 1h 38mn
Bit rate : 915 Kbps
Width : 688 pixels
Height : 368 pixels
Display aspect ratio : 1.870
Frame rate : 23.976 fps
Resolution : 24 bits
Colorimetry : 4:2:0
Scan type : Progressive
Bits/(Pixel*Frame) : 0.151
Stream size : 644 MiB (87%)
Writing library : XviD 50
Audio
Format : MPEG Audio
Format version : Version 1
Format profile : Layer 3
Codec ID : 55
Codec ID/Hint : MP3
Duration : 1h 38mn
Bit rate mode : Constant
Bit rate : 128 Kbps
Channel(s) : 2 channels
Sampling rate : 48.0 KHz
Resolution : 16 bits
Stream size : 90.1 MiB (12%)
Alignment : Aligned on interleaves
Interleave, duration : 42 ms (1.00 video frame)
Interleave, preload duration : 504 ms



Скачать Пять.легких.пьес.Five.Easy.Pieces.(Боб.Рейфелсон).[1970.г.драма.HDRip].[MVO].torrent без регистрации
Золото ЗОЛОТАЯ РАЗДАЧА! СКАЧАННОЕ НЕ ЗАСЧИТЫВАЕТСЯ! Золото
Дата: Зарегистрирован   [ Тип: внутренний ] Как тут cкачать?
MAGNET ссылка
MAGNET ссылка


Скачать .torrent

15 KB

Статус: проверено DHT
Скачан: торрент - 38 раз, раздача полностью - 0 раз
Размер: 741 MB
Оценка:  - (Голосов: 0)
Поблагодарили: 0
Поделиться ссылкой на эту раздачу с друзьями:
В контактеFacebookОдноклассникиTwitterLivejournalМой МирLiveinternet
 

 
Показать сообщения:    


Вы не можете начинать темы
Вы не можете отвечать на сообщения
Вы не можете редактировать свои сообщения
Вы не можете удалять свои сообщения
Вы не можете голосовать в опросах
Вы не можете прикреплять файлы к сообщениям
Вы можете скачивать файлы