Loading...
Error

Скачать Бонг времени / Time Traveling Bong (сезон 01) (Люсия Аньелло) [2016, фантастика, комедия, WEBRip] [DVO (HamsterStudio)] торрент без регистрации

 
Статистика раздачи
Размер:  670 MB   |    Скачан:  71 раз
Сидов:  9  [  0 KB/s  ]  
 
Автор Сообщение

МихаНЕзатор

[] 

Информация о фильме
Название: Бонг времени
Оригинальное название: Time Traveling Bong
Год выхода: 2016
Жанр: фантастика, комедия
Режиссер: Люсия Аньелло

В ролях: Илана Глейзер, Пол В. Даунс, Кевин, Хеффернан, Джерри Дж. Анджело, Икси Букер, Эйден Бёрджесс, Нил Кэйси, Анджелина Каваллини, Сара Клэнси, Джун Каррил

О фильме: Брат и сестра находят бонг путешествий во времени и кайфуют сквозь время.



Релиз от: HamsterStudio

Страна: США
Продолжительность: ~00:22:00 серия
Перевод: Любительский двухголосый [HamsterStudio]

Файл
Кодек: XviD
Качество: WEBRip
Видео: 720x400, 1 245 Kbps, 23.976 (24000/1001) fps
Звук: MP3, 128 Kbps (2 ch)

АНОНСЫ ПОПУЛЯРНЫХ РАЗДАЧ
General
Complete name : /home/roma/Відео/Бонг для путешествий во времени (Time Traveling Bong)/Time.Traveling.Bong.s01.E01.avi
Format : AVI
Format/Info : Audio Video Interleave
File size : 220 MiB
Duration : 22mn 16s
Overall bit rate : 1 382 Kbps
Writing application : VirtualDubMod 1.5.10.2 (build 2540/release)
Writing library : VirtualDubMod build 2540/release

Video
ID : 0
Format : MPEG-4 Visual
Format profile : Advanced Simple@L5
Format settings, BVOP : 2
Format settings, QPel : No
Format settings, GMC : No warppoints
Format settings, Matrix : Default (H.263)
Muxing mode : Packed bitstream
Codec ID : XVID
Codec ID/Hint : XviD
Duration : 22mn 16s
Bit rate : 1 245 Kbps
Width : 720 pixels
Height : 400 pixels
Display aspect ratio : 16:9
Frame rate : 23.976 (24000/1001) fps
Color space : YUV
Chroma subsampling : 4:2:0
Bit depth : 8 bits
Scan type : Progressive
Compression mode : Lossy
Bits/(Pixel*Frame) : 0.180
Stream size : 198 MiB (90%)
Writing library : XviD 66

Audio
ID : 1
Format : MPEG Audio
Format version : Version 1
Format profile : Layer 3
Mode : Joint stereo
Mode extension : MS Stereo
Codec ID : 55
Codec ID/Hint : MP3
Duration : 22mn 16s
Bit rate mode : Constant
Bit rate : 128 Kbps
Channel(s) : 2 channels
Sampling rate : 48.0 KHz
Compression mode : Lossy
Stream size : 20.4 MiB (9%)
Alignment : Aligned on interleaves
Interleave, duration : 42 ms (1.00 video frame)
Interleave, preload duration : 504 ms
Writing library : LAME3.99r
Encoding settings : -m j -V 4 -q 2 -lowpass 17 -b 128
Присутствуют вставки голосовой и текстовой рекламы



Скачать Бонг.времени.Time.Traveling.Bong.(сезон.01).(Люсия.Аньелло).[2016.фантастика.комедия.WEBRip].[DVO.(HamsterStudio)].torrent без регистрации
Золото ЗОЛОТАЯ РАЗДАЧА! СКАЧАННОЕ НЕ ЗАСЧИТЫВАЕТСЯ! Золото
Дата: Зарегистрирован   [ Тип: внешний ] Как тут cкачать?
MAGNET ссылка
MAGNET ссылка


Скачать .torrent

839 KB

Статус: проверено DHT
Скачан: торрент - 71 раз, раздача полностью - 36 раз
Размер: 670 MB
Оценка:  - (Голосов: 0)
Поблагодарили: 0
Поделиться ссылкой на эту раздачу с друзьями:
В контактеFacebookОдноклассникиTwitterLivejournalМой МирLiveinternet
 

 
Показать сообщения:    


Вы не можете начинать темы
Вы не можете отвечать на сообщения
Вы не можете редактировать свои сообщения
Вы не можете удалять свои сообщения
Вы не можете голосовать в опросах
Вы не можете прикреплять файлы к сообщениям
Вы можете скачивать файлы