Loading...
Error

Скачать Игра престолов / Game of Thrones (Сезон 06) [2016, фэнтези, драма, WEB-DLRip] [MVO] (AlexFilm) торрент без регистрации

 
Статистика раздачи
Размер:  6,55 GB   |    Скачан:  319 раз
Сидов:  1  [  0 KB/s  ]  
 
Автор Сообщение

leon030982

[] 

Игра престолов / Game of Thrones


Год выпуска: 2016
Страна: США, Великобритания
Жанр: фэнтези, драма
Продолжительность: 1 х ~ 60 мин
Озвучание: Профессиональное (многоголосое закадровое) (AlexFilm)

Авторы сценария: Дэвид Беньофф, Д.Б.Вейсс, Брайан Когман, Дэйв Хилл
Режиссеры: Майкл Словис, Марк Майлод, Джереми Подесва, Мигель Сапочник, Дэвид Наттер

В ролях: Питер Динклэйдж (Тирион Ланнистер), Лена Хиди (Серсея Ланнистер), Николай Костер-Вальдау (Джейме Ланнистер), Эмилия Кларк (Дейенерис Таргариен), Эйдан Гиллен (Петир Бейлиш), Иэн Глен (сир Джорах Мормонт), Кит Харингтон (Джон Сноу), Лиам Каннингэм (сир Давос Сиворт), Айзек Хэмпстед-Райт (Бран Старк), Софи Тернер (Санса Старк), Мэйси Уильямс (Арья Старк), Элфи Аллен (Теон Грейджой), Джон Брэдли-Уэст (Сэмвел Тарли), Стивен Диллэйн (король Станнис Баратеон), Кэрис Ван Хаутен (Мелисандра), Джером Флинн (Бронн), Конлет Хилл (лорд Варис)

Описание: «Игра престолов» сериал HBO, основанный на бестселлерах Джорджа Р.Р. Мартина. В мире, где лето и зимы длятся десятилетиями, на кону корона Вестероса. Предательство, похоть, интриги и сверхъестественные силы сотрясают все четыре стороны Королевства — от плетущего интриги юга, диких восточных земель, до замерзшего севера и древней Стены, что защищает королевство от тьмы за нею. Короли и королевы, рыцари и мятежники, лжецы и благородные люди борются за власть в кровавом сражении за Железный Трон.

Релиз:
Перевод: Александр Митраков (Opel), Илья Белкин (Volverine73)& Westeros (форум Ночного Дозора у Стены)"]Монтаж и сведение звука: Михаил Шорыгин
Роли озвучивали:Евгения Тихонова
Анна Тух
Пётр Иващенко (Гланц)
Александр Дасевич
Константин Погодаев
Роман Сопко
Михаил Суслов

Сэмпл: http://sendfile.su/1228695

Внимание! В сериале присутствуют сцены с обнаженной натурой!
Качество: WEB-DLRip
Формат: AVI
Видео: 720x400 (1.80:1), 23.976 fps, XviD ~1400 kbps avg, 0.20 bit/pixel
Аудио Rus: 48 kHz, MPEG Layer 3, 2 ch, ~128.00 kbps avg
Аудио Eng: 48 kHz, MPEG Layer 3, 2 ch, ~128.00 kbps avg
Субтитры: русские форсированные (на дотракийскую и валирийскую речь)

Добавлена 9-10-я серия!
Формат : AVI
Формат/Информация : Audio Video Interleave
Размер файла : 600 Мбайт
Продолжительность : 50 м.
Общий поток : 1673 Кбит/сек
Название фильма : Game of Thrones 6x01 @ AlexFilm
Программа кодирования : VirtualDubMod 1.5.10.2 (build 2540/release)
Библиотека кодирования : VirtualDubMod build 2540/release
Видео
Идентификатор : 0
Формат : MPEG-4 Visual
Профиль формата : Advanced Simple@L5
Параметр BVOP формата : 2
Параметр QPel формата : Нет
Параметр GMC формата : Без точки перехода
Параметр матрицы формата : Default (MPEG)
Идентификатор кодека : DX50
Идентификатор кодека/Подсказка : DivX 5
Продолжительность : 50 м.
Битрейт : 1403 Кбит/сек
Ширина : 720 пикселей
Высота : 400 пикселей
Соотношение сторон : 16:9
Частота кадров : 23,976 кадра/сек
Цветовое пространство : YUV
Субдискретизация насыщенности : 4:2:0
Битовая глубина : 8 бит
Тип развёртки : Прогрессивная
Метод сжатия : С потерями
Бит/(Пиксели*Кадры) : 0.203
Размер потока : 503 Мбайт (84%)
Библиотека кодирования : XviD 73
Аудио #1
Идентификатор : 1
Формат : MPEG Audio
Версия формата : Version 1
Профиль формата : Layer 3
Режим : Joint stereo
Расширение режима : MS Stereo
Идентификатор кодека : 55
Идентификатор кодека/Подсказка : MP3
Продолжительность : 50 м.
Вид битрейта : Постоянный
Битрейт : 128 Кбит/сек
Каналы : 2 канала
Частота : 48,0 КГц
Метод сжатия : С потерями
Размер потока : 45,9 Мбайт (8%)
Выравнивание : Соединение по промежуткам
Продолжительность промежутка : 42 мс. (1,00 видеокадр)
Время предзагрузки промежутка : 504 мс.
Заголовок : Russian (AlexFilm)
Библиотека кодирования : LAME3.99r
Настройки программы : -m j -V 4 -q 3 -lowpass 18 -b 128
Аудио #2
Идентификатор : 2
Формат : MPEG Audio
Версия формата : Version 1
Профиль формата : Layer 3
Режим : Joint stereo
Расширение режима : MS Stereo
Идентификатор кодека : 55
Идентификатор кодека/Подсказка : MP3
Продолжительность : 50 м.
Вид битрейта : Постоянный
Битрейт : 128 Кбит/сек
Каналы : 2 канала
Частота : 48,0 КГц
Метод сжатия : С потерями
Размер потока : 45,9 Мбайт (8%)
Выравнивание : Соединение по промежуткам
Продолжительность промежутка : 42 мс. (1,00 видеокадр)
Время предзагрузки промежутка : 504 мс.
Заголовок : English
Библиотека кодирования : LAME3.99r
Настройки программы : -m j -V 4 -q 3 -lowpass 18 -b 128
Внимание! Раздача ведётся путём добавления новых серий; при каждом добавлении создаётся новый торрент. Чтобы начать докачку новой серии, пользователям необходимо сделать следующее:
(1) остановить скачивание,
(2) удалить старый торрент у себя из клиента (старые серии удалять не надо),
(3) скачать новый торрент и запустить его у себя в клиенте вместо старого, при этом указать клиенту путь в старую папку куда и должно происходить скачивание новых серий.
Ваш клиент при этом должен произвести хеширование (проверку) старой папки (если не производит сам - помогите ему сделать это), и будет докачивать только те серии которых у вас ещё нет. Старые серии при этом не удаляются, а продолжают раздаваться!
Eсли вы уже удалили старые серии, то предотвратить повторную закачку старых серий можно, отжав галочку в соответствующих местах при запуске нового торрента. По возможности, желательно не удалять старые серии как можно дольше чтобы релизёр не столько продолжал раздавать старые серии, а смог сконцентрироваться на новых.



Скачать Игра.престолов.Game.of.Thrones.(Сезон.06).[2016.фэнтези.драма.WEB-DLRip].[MVO].(AlexFilm).torrent без регистрации
Золото ЗОЛОТАЯ РАЗДАЧА! СКАЧАННОЕ НЕ ЗАСЧИТЫВАЕТСЯ! Золото
Дата: Зарегистрирован   [ Тип: внутренний ] Как тут cкачать?
MAGNET ссылка
MAGNET ссылка


Скачать .torrent

18 KB

Статус: проверено DHT
Скачан: торрент - 319 раз, раздача полностью - 18 раз
Размер: 6,55 GB
Оценка:  3 (Голосов: 2)
Поблагодарили: 2
Поделиться ссылкой на эту раздачу с друзьями:
В контактеFacebookОдноклассникиTwitterLivejournalМой МирLiveinternet
 

 
Показать сообщения:    


Вы не можете начинать темы
Вы не можете отвечать на сообщения
Вы не можете редактировать свои сообщения
Вы не можете удалять свои сообщения
Вы не можете голосовать в опросах
Вы не можете прикреплять файлы к сообщениям
Вы можете скачивать файлы