Loading...
Error

Скачать Игра престолов / Game of Thrones (сезон 06) (Алан Тейлор и др.) [2016, фэнтези, драма, приключения, BDRemux] [1080p] [Dub (Amedia)]+5x[MVO (AlexFilm, LostFilm, NewStudio, FocusStudio, Omikron)]+[Eng]+[Sub Rus, Eng] торрент без регистрации

Статистика раздачи
Размер:  105,04 GB   |    Скачан:  599 раз
Сидов:  1  [  0 KB/s  ]  
 
 
 
Автор Сообщение

МихаНЕзатор

[] 



Информация о фильме
Название: Игра престолов
Оригинальное название: Game of Thrones
Год выхода: 2016
Жанр: фэнтези, драма, приключения
Режиссер: Алан Тейлор, Дэвид Наттер, Алекс Грейвз

В ролях: Лина Хиди, Питер Динклэйдж, Мишель Фэйрли, Эмилия Кларк, Кит Харингтон, Николай Костер-Валдау, Иэн Глен, Эйден Гиллен, Элфи Оуэн-Аллен, Мэйси Уильямс, Софи Тёрнер, Джек Глисон, Айзек Хемпстед-Райт, Ричард Мэдден, Джером Флинн, Конлет Хилл

О фильме: Загадка: ни живой ни мертвый – кто такой? Правильно, Джон Сноу. Пожалуй, ни один сериал не может похвастаться таким количеством прогнозов и теорий в преддверии премьеры сезона. За время существования создатели сериала научились изощренно дразнить фанатов – то новым тизером, то “утечкой”, то целой коллекцией постеров с мертвецами. Интрига усиливается еще и тем, что сериал обогнал книгу - сюжет шестого сезона основан на недописанной книге «Ветра зимы». Итак, все смешалось в Черно-Белом доме. В стенах Зала ликов сложены головы погибших и живых героев, и застрявшего где-то посерединке Джона Сноу....



Страна: США, Великобритания
Студия: Bighead Littlehead, Generator Entertainment, Home Box Office (HBO)
Продолжительность: 1 x ~ 00:50:00
Перевод: Профессиональный (дублированный) «Kravec Records» по заказу Amedia + Профессиональный (многоголосый, закадровый) AlexFilm + Профессиональный (многоголосый, закадровый) LostFilm + Профессиональный (многоголосый, закадровый) NewStudio + Профессиональный (многоголосый закадровый) FocusStudio + Профессиональный (многоголосый закадровый) Omikron

Файл
Качество: BDRemux 1080p
Контейнер: MKV
Видео: 1920x1080 (16:9) | X264/MPEG4-AVC | ~23,9 Mbps | 23.976 fps
Аудио 1: AC3 | 48 KHz | 5.1 (Front: L С R Side: L R) + LFE | ~384 kbps [DUB (Amedia) / RUS]
Аудио 1: AC3 | 48 KHz | 5.1 (Front: L С R Side: L R) + LFE | ~384 kbps [MVO (LostFilm / RUS]
Аудио 1: AC3 | 48 KHz | 5.1 (Front: L С R Side: L R) + LFE | ~384 kbps [MVO (AlexFilm) / RUS]
Аудио 1: AC3 | 48 KHz | 5.1 (Front: L С R Side: L R) + LFE | ~384 kbps [MVO (NewStudio) / RUS]
Аудио 1: AC3 | 48 KHz | 5.1 (Front: L С R Side: L R) + LFE | ~384 kbps [MVO (FocusStudio) / RUS]
Аудио 1: AC3 | 48 KHz | 5.1 (Front: L С R Side: L R) + LFE | ~384 kbps [MVO (Omikron) / UKR]
Аудио 2: 7.1-Atmos | 48 KHz | 7.1 | ~3914 kbps [ENG]
Аудио 3: AC3 | 48 KHz | 5.1 (Front: L С R Side: L R) + LFE | ~640 kbps [ENG]
Субтитры: Русские (7kingdoms), английские

АНОНСЫ ПОПУЛЯРНЫХ РАЗДАЧ


Торрент обновлён, добавлена 10-я серия!
Общее
Уникальный идентификатор : 179827345264990280420949377389850360669 (0x87497CA5E85F7601A9455CD0FCE17B5D)
Полное имя : E:\Game.of.Thrones.S06.BDRemux\Game.of.Thrones.S06E02.BDRemux.5xRus.Ukr.2xEng.mkv
Формат : Matroska
Версия формата : Version 4 / Version 2
Размер файла : 11,9 Гбайт
Продолжительность : 53 м. 42 с.
Режим общего битрейта : Переменный
Общий поток : 31,7 Мбит/сек
Название фильма : Game of Thrones 6x02 @ AlexFilm
Дата кодирования : UTC 2016-11-13 18:45:48
Программа кодирования : mkvmerge v9.4.0 ('Knurl') 64bit
Библиотека кодирования : libebml v1.3.4 + libmatroska v1.4.5
Обложка : Yes
Attachments : small_cover.jpg / cover.jpg / cover_land.jpg / small_cover_land.jpg
Видео
Идентификатор : 1
Формат : AVC
Формат/Информация : Advanced Video Codec
Профиль формата : High@L4.1
Параметр CABAC формата : Да
Параметр ReFrames формата : 4 кадра
Идентификатор кодека : V_MPEG4/ISO/AVC
Продолжительность : 53 м. 42 с.
Вид битрейта : Переменный
Битрейт : 24,8 Мбит/сек
Максимальный битрейт : 34,0 Мбит/сек
Ширина : 1920 пикселей
Высота : 1080 пикселей
Соотношение сторон : 16:9
Режим частоты кадров : Постоянный
Частота кадров : 23,976 (24000/1001) кадра/сек
Цветовое пространство : YUV
Субдискретизация насыщенности : 4:2:0
Битовая глубина : 8 бит
Тип развёртки : Прогрессивная
Бит/(Пиксели*Кадры) : 0.500
Размер потока : 9,32 Гбайт (78%)
Default : Да
Forced : Нет
Аудио #1
Идентификатор : 2
Формат : AC-3
Формат/Информация : Audio Coding 3
Расширение режима : CM (complete main)
Параметр Endianness формата : Big
Идентификатор кодека : A_AC3
Продолжительность : 53 м. 40 с.
Вид битрейта : Постоянный
Битрейт : 384 Кбит/сек
Каналы : 6 каналов
Расположение каналов : Front: L C R, Side: L R, LFE
Частота : 48,0 КГц
Частота кадров : 31,250 кадров/сек (1536 spf)
Метод сжатия : С потерями
Задержка видео : 1 с. 850 мс.
Размер потока : 147 Мбайт (1%)
Заголовок : DUB (Amedia)
Язык : Russian
Default : Да
Forced : Нет
Аудио #2
Идентификатор : 3
Формат : AC-3
Формат/Информация : Audio Coding 3
Расширение режима : CM (complete main)
Параметр Endianness формата : Big
Идентификатор кодека : A_AC3
Продолжительность : 53 м. 40 с.
Вид битрейта : Постоянный
Битрейт : 384 Кбит/сек
Каналы : 6 каналов
Расположение каналов : Front: L C R, Side: L R, LFE
Частота : 48,0 КГц
Частота кадров : 31,250 кадров/сек (1536 spf)
Метод сжатия : С потерями
Задержка видео : 1 с. 850 мс.
Размер потока : 147 Мбайт (1%)
Заголовок : MVO (LostFilm)
Язык : Russian
Default : Нет
Forced : Нет
Аудио #3
Идентификатор : 4
Формат : AC-3
Формат/Информация : Audio Coding 3
Расширение режима : CM (complete main)
Параметр Endianness формата : Big
Идентификатор кодека : A_AC3
Продолжительность : 53 м. 40 с.
Вид битрейта : Постоянный
Битрейт : 384 Кбит/сек
Каналы : 6 каналов
Расположение каналов : Front: L C R, Side: L R, LFE
Частота : 48,0 КГц
Частота кадров : 31,250 кадров/сек (1536 spf)
Метод сжатия : С потерями
Задержка видео : 1 с. 850 мс.
Размер потока : 147 Мбайт (1%)
Заголовок : MVO (AlexFilm)
Язык : Russian
Default : Нет
Forced : Нет
Аудио #4
Идентификатор : 5
Формат : AC-3
Формат/Информация : Audio Coding 3
Расширение режима : CM (complete main)
Параметр Endianness формата : Big
Идентификатор кодека : A_AC3
Продолжительность : 53 м. 40 с.
Вид битрейта : Постоянный
Битрейт : 384 Кбит/сек
Каналы : 6 каналов
Расположение каналов : Front: L C R, Side: L R, LFE
Частота : 48,0 КГц
Частота кадров : 31,250 кадров/сек (1536 spf)
Метод сжатия : С потерями
Задержка видео : 1 с. 850 мс.
Размер потока : 147 Мбайт (1%)
Заголовок : MVO (NewStudio)
Язык : Russian
Default : Нет
Forced : Нет
Аудио #5
Идентификатор : 6
Формат : AC-3
Формат/Информация : Audio Coding 3
Расширение режима : CM (complete main)
Параметр Endianness формата : Big
Идентификатор кодека : A_AC3
Продолжительность : 53 м. 40 с.
Вид битрейта : Постоянный
Битрейт : 384 Кбит/сек
Каналы : 6 каналов
Расположение каналов : Front: L C R, Side: L R, LFE
Частота : 48,0 КГц
Частота кадров : 31,250 кадров/сек (1536 spf)
Метод сжатия : С потерями
Задержка видео : 1 с. 850 мс.
Размер потока : 147 Мбайт (1%)
Заголовок : MVO (FocusStudio)
Язык : Russian
Default : Нет
Forced : Нет
Аудио #6
Идентификатор : 7
Формат : AC-3
Формат/Информация : Audio Coding 3
Расширение режима : CM (complete main)
Параметр Endianness формата : Big
Идентификатор кодека : A_AC3
Продолжительность : 53 м. 40 с.
Вид битрейта : Постоянный
Битрейт : 384 Кбит/сек
Каналы : 6 каналов
Расположение каналов : Front: L C R, Side: L R, LFE
Частота : 48,0 КГц
Частота кадров : 31,250 кадров/сек (1536 spf)
Метод сжатия : С потерями
Задержка видео : 1 с. 850 мс.
Размер потока : 147 Мбайт (1%)
Заголовок : MVO (Omikron)
Язык : Ukrainian
Default : Нет
Forced : Нет
Аудио #7
Идентификатор : 8
Формат : AC-3
Формат/Информация : Audio Coding 3
Расширение режима : CM (complete main)
Параметр Endianness формата : Big
Идентификатор кодека : A_AC3
Продолжительность : 53 м. 42 с.
Вид битрейта : Постоянный
Битрейт : 640 Кбит/сек
Каналы : 6 каналов
Расположение каналов : Front: L C R, Side: L R, LFE
Частота : 48,0 КГц
Частота кадров : 31,250 кадров/сек (1536 spf)
Метод сжатия : С потерями
Размер потока : 246 Мбайт (2%)
Язык : English
Default : Нет
Forced : Нет
Аудио #8
Идентификатор : 9
Формат : Atmos / TrueHD
Идентификатор кодека : A_TRUEHD
Продолжительность : 53 м. 42 с.
Вид битрейта : Переменный
Битрейт : 3857 Кбит/сек
Максимальный битрейт : 6894 Кбит/сек
Каналы : Object Based / 8 каналов
Расположение каналов : Object Based / Front: L C R, Side: L R, Back: L R, LFE
Частота : / 48,0 КГц
Частота кадров : 1200,000 кадров/сек (40 spf)
Метод сжатия : Без потерь
Размер потока : 1,45 Гбайт (12%)
Язык : English
Default : Нет
Forced : Нет
Текст #1
Идентификатор : 10
Формат : UTF-8
Идентификатор кодека : S_TEXT/UTF8
Идентификатор кодека/Информация : UTF-8 Plain Text
Продолжительность : 47 м. 44 с.
Битрейт : 65 бит/сек
Count of elements : 505
Размер потока : 22,9 Кбайт (0%)
Заголовок : Amedia
Язык : Russian
Default : Нет
Forced : Нет
Текст #2
Идентификатор : 11
Формат : UTF-8
Идентификатор кодека : S_TEXT/UTF8
Идентификатор кодека/Информация : UTF-8 Plain Text
Продолжительность : 49 м. 52 с.
Битрейт : 68 бит/сек
Count of elements : 480
Размер потока : 25,0 Кбайт (0%)
Заголовок : 7kingdoms
Язык : Russian
Default : Нет
Forced : Нет
Текст #3
Идентификатор : 12
Формат : UTF-8
Идентификатор кодека : S_TEXT/UTF8
Идентификатор кодека/Информация : UTF-8 Plain Text
Продолжительность : 47 м. 46 с.
Битрейт : 71 бит/сек
Count of elements : 479
Размер потока : 25,1 Кбайт (0%)
Заголовок : Opel & Volverine
Язык : Russian
Default : Нет
Forced : Нет
Текст #4
Идентификатор : 13
Формат : PGS
Режим смешивания : zlib
Идентификатор кодека : S_HDMV/PGS
Идентификатор кодека/Информация : Picture based subtitle format used on BDs/HD-DVDs
Продолжительность : 50 м. 23 с.
Битрейт : 9336 бит/сек
Count of elements : 1140
Размер потока : 3,37 Мбайт (0%)
Язык : English
Default : Да
Forced : Нет
Когда раздача ведётся путём добавления новых серий, при каждом добавлении создётся новый торрент. Чтобы начать докачку новой серии, пользователям необходимо сделать следующее:
(1) остановить скачивание,
(2) удалить старый торрент у себя из клиента (старые серии удалять не надо),
(3) скачать новый торрент и запустить его у себя в клиенте вместо старого, при этом указать клиенту путь в старую папку, куда и должно происходить скачивание новых серий.
Ваш клиент при этом должен произвести хеширование (проверку) старой папки (если не производит сам - помогите ему сделать это), и будет докачивать только те серии, которых у вас ещё нет. Старые серии при этом не удаляются, а продолжают раздаваться!
Eсли вы уже удалили старые серии, то предотвратить повторную закачку старых серий можно, отжав галочку в соответсвующих местах при запуске нового торрента. По возможности, желательно не удалять старые серии как можно дольше, чтобы релизёр не столько продолжал раздавать старые серии, а смог сконцентрироваться на новых.




Скачать Игра.престолов.Game.of.Thrones.(сезон.06).(Алан.Тейлор.и.др.).[2016.фэнтези.драма.приключения.BDRemux].[1080p].[Dub.(Amedia)]+5x[MVO.(AlexFilm.LostFilm.NewStudio.FocusStudio.Omikron)]+[Eng]+[Sub.Rus.Eng].torrent без регистрации
Золото ЗОЛОТАЯ РАЗДАЧА! СКАЧАННОЕ НЕ ЗАСЧИТЫВАЕТСЯ! Золото
Дата: Зарегистрирован   [ Тип: внутренний ] Как тут cкачать?
MAGNET ссылка
MAGNET ссылка


Скачать .torrent

133 KB

Статус: проверено DHT
Скачан: торрент - 599 раз, раздача полностью - 6 раз
Размер: 105,04 GB
Оценка:  5 (Голосов: 1)
Поблагодарили: 5
Поделиться ссылкой на эту раздачу с друзьями:
В контактеFacebookОдноклассникиTwitterLivejournalМой МирLiveinternet
 

 
Показать сообщения:    


Вы не можете начинать темы
Вы не можете отвечать на сообщения
Вы не можете редактировать свои сообщения
Вы не можете удалять свои сообщения
Вы не можете голосовать в опросах
Вы не можете прикреплять файлы к сообщениям
Вы можете скачивать файлы