Loading...
Error

Скачать Страшные сказки / Penny Dreadful (сезон 03) (Хуан Антонио Байона) [2016, ужасы, триллер, HDTV] [720р] [DVO (Sunshine Studio)] торрент без регистрации

 
Статистика раздачи
Размер:  8,07 GB   |    Скачан:  445 раз
Сидов:  1  [  0 KB/s  ]  
 
Автор Сообщение

МихаНЕзатор

[] 

Название: Ужасы по дешёвке
Оригинальное название: Penny Dreadful
Год выхода: 2016
Жанр: ужасы, триллер
Режиссер: Хуан Антонио Байона, Дирбла Уолш, Сэм Мендес

В ролях: Тимоти Далтон, Ева Грин, Джош Хартнетт, Рори Киннер, Хелен МакКрори, Билли Пайпер, Гарри Тредэвэй, Рив Карни, Алан Армстронг, Рик Берн, Джейд Юрелл и др.

Описание сериала: Сериал возвращает нас к всеми любимым героям, монстрам и злодеям. В викторианском Лондоне, где происходит действие сериала, никогда не было спокойно и безопасно. Особенно теперь, когда литературные персонажи ожили и наводят ужас на город. Неминуема встреча с вечно молодым Дорианом Греем, героем одноименного романа Оскара Уальда, доктором Франкенштейном и его зомби-монстром, хладнокровным графом Дракулой, охотником на вампиров и оборотней Ван Хельсингом и множеством других уникальных персонажей.

Релиз группа:

Страна: США, Ирландия, Великобритания
Производство: Desert Wolf Productions, Neal Street Productions
Продолжительность: ~ 00:55:00
Перевод: Любительский (двухголосый) Sunshine Studio
Субтитры: Отсутствуют
Реклама: Присутствует

Файл
Формат: MKV
Качество: HDTV 720р
Видео: MPEG-4 AVC, 3500 Кбит/с, 1280x720
Аудио: 48 kHz, AC3 Dolby Digital, 2/0 (L,R) ch, ~192 kbps

АНОНСЫ ПОПУЛЯРНЫХ РАЗДАЧ


Торрент обновлён, добавлена 9-я серия!
Формат : Matroska
Версия формата : Version 4 / Version 2
Размер файла : 638 Мбайт
Продолжительность : 1 ч. 0 м.
Общий поток : 1481 Кбит/сек
Дата кодирования : UTC 2016-04-25 21:24:47
Программа кодирования : mkvmerge v8.8.0 ('Wind at my back') 64bit
Библиотека кодирования : libebml v1.3.3 + libmatroska v1.4.4

Видео
Идентификатор : 1
Формат : AVC
Формат/Информация : Advanced Video Codec
Профиль формата : Baseline@L3.1
Параметр CABAC формата : Нет
Параметр ReFrames формата : 2 кадра
Параметр GOP формата : M=1, N=30
Идентификатор кодека : V_MPEG4/ISO/AVC
Продолжительность : 1 ч. 0 м.
Битрейт : 1287 Кбит/сек
Ширина : 1280 пикселей
Высота : 720 пикселей
Соотношение сторон : 16:9
Режим частоты кадров : Постоянный
Частота кадров : 29,970 (29970/1000) кадров/сек
Цветовое пространство : YUV
Субдискретизация насыщенности : 4:2:0
Битовая глубина : 8 бит
Тип развёртки : Прогрессивная
Бит/(Пиксели*Кадры) : 0.047
Размер потока : 554 Мбайт (87%)
Default : Да
Forced : Нет

Аудио
Идентификатор : 2
Формат : AC-3
Формат/Информация : Audio Coding 3
Расширение режима : CM (complete main)
Параметр Endianness формата : Big
Идентификатор кодека : A_AC3
Продолжительность : 1 ч. 0 м.
Вид битрейта : Постоянный
Битрейт : 192 Кбит/сек
Каналы : 2 канала
Расположение каналов : Front: L R
Частота : 48,0 КГц
Частота кадров : 31,250 кадров/сек (1536 spf)
Метод сжатия : С потерями
Размер потока : 82,7 Мбайт (13%)
Default : Да
Forced : Нет
Внимание! Раздача ведётся путём добавления новых серий; при каждом добавлении создаётся новый торрент. Чтобы начать докачку новой серии, пользователям необходимо сделать следующее:
(1) остановить скачивание,
(2) удалить старый торрент у себя из клиента (старые серии удалять не надо),
(3) скачать новый торрент и запустить его у себя в клиенте вместо старого, при этом указать клиенту путь в старую папку куда и должно происходить скачивание новых серий.

Ваш клиент при этом должен произвести хеширование (проверку) старой папки (если не производит сам - помогите ему сделать это), и будет докачивать только те серии которых у вас ещё нет. Старые серии при этом не удаляются, а продолжают раздаваться!

Eсли вы уже удалили старые серии, то предотвратить повторную закачку старых серий можно, отжав галочку в соответсвующих местах при запуске нового торрента. По возможности, желательно не удалять старые серии как можно дольше чтобы релизёр не столько продолжал раздавать старые серии, а смог сконцентрироваться на новых.



Скачать Страшные.сказки.Penny.Dreadful.(сезон.03).(Хуан.Антонио.Байона).[2016.ужасы.триллер.HDTV].[720р].[DVO.(Sunshine.Studio)].torrent без регистрации
Золото ЗОЛОТАЯ РАЗДАЧА! СКАЧАННОЕ НЕ ЗАСЧИТЫВАЕТСЯ! Золото
Дата: Зарегистрирован   [ Тип: внутренний ] Как тут cкачать?
MAGNET ссылка
MAGNET ссылка


Скачать .torrent

42 KB

Статус: проверено DHT
Скачан: торрент - 445 раз, раздача полностью - 0 раз
Размер: 8,07 GB
Оценка:  - (Голосов: 0)
Поблагодарили: 0
Поделиться ссылкой на эту раздачу с друзьями:
В контактеFacebookОдноклассникиTwitterLivejournalМой МирLiveinternet
 

 
Показать сообщения:    


Вы не можете начинать темы
Вы не можете отвечать на сообщения
Вы не можете редактировать свои сообщения
Вы не можете удалять свои сообщения
Вы не можете голосовать в опросах
Вы не можете прикреплять файлы к сообщениям
Вы можете скачивать файлы