Loading...
Error

Скачать Игра престолов / Game of Thrones (сезон 06) (Джереми Подесва и др.) [2016, фантастика, фэнтези, боевик, приключения, HDTVRip-AVC] [Dub (Amedia)]+[MVO (LostFilm, AlexFilm)]+[Eng]+[Sub Rus, Eng] торрент без регистрации

 
Статистика раздачи
Размер:  8,6 GB   |    Скачан:  1299 раз
Сидов:  1  [  0 KB/s  ]  
 
Автор Сообщение

МихаНЕзатор

[] 



Информация о фильме
Название: Игра престолов
Оригинальное название: Game of Thrones
Год выхода: 2016
Жанр: фантастика, фэнтези, боевик, приключения
Режиссер: Джереми Подесва, Дэниэл Сакхайм, Джек Бендер, Марк Майлод, Мигель Сапочник

В ролях: Питер Динклэйдж, Иэн Глен, Николай Костер-Валдау, Лина Хиди, Эмилия Кларк, Кит Харингтон, Лиам Каннингэм, Кэрис ван Хаутен, Натали Дормер, Индира Варма, Софи Тёрнер, Мэйси Уильямс, Конлет Хилл, Элфи Оуэн-Аллен, Гвендолин Кристи, Джонатан Прайс, Майкл МакЭлхаттон, Иван Реон, Джозеф Науфаху, Ханна Уэддингхэм, Розабелла Лауренти Селлерс, Дэниэл Портман, Фэй Марсей, Оуэн Тил

О фильме:
Шестой сезон фэнтезийного драматического сериала «Игра престолов», основанного на бестселлерах Джорджа Мартина. Новые серии являются экранизацией наименьшей части книги «Ветра зимы», которая будет дописана к 2017 году. 6 сезон Игры престолов станет первым, основанным на черновиках создателя книжной серии «Песнь Льда и Огня». Кроме того, как и пятом сезоне, в новых сериях будут показаны события, которых не было в книгах Джорджа Мартина.



Примечание: Все виды рекламы в аудио-дорожках отсутствуют !!!

Страна: США, Великобритания
Студия: HBO, Television 360
Продолжительность: 1 x ~ 00:50:00
Перевод: Дублированный, профессиональный (многоголосый, закадровый)

Файл
Формат: MKV
Кодек: H.264
Качество: HDTVRip-AVC
Видео: 720x400 [16:9] at 23.976 fps, x264 H@3.1, 1075 kbps
Звук:
Аудио#1: Русский AAC-HE, 48 kHz, 3/2 (L,C,R,l,r) + LFE ch, 16-bit, ~288 kbps [DUB Amedia]
Аудио#2: Русский AAC-HE, 48 kHz, 3/2 (L,C,R,l,r) + LFE ch, 16-bit, ~288 kbps [MVO LostFilm]
Аудио#3: Русский AAC-HE, 48 kHz, 3/2 (L,C,R,l,r) + LFE ch, 16-bit, ~288 kbps [MVO AlexFilm]
Аудио#4: Английский AAC-HE, 48 kHz, 3/2 (L,C,R,l,r) + LFE ch, 16-bit, ~288 kbps [Original]
Субтитры: Русские, английские (на дотракийскую и валирийскую речь + полные)

АНОНСЫ ПОПУЛЯРНЫХ РАЗДАЧ


Торрент обновлён!

6 сезон:
01 - The Red Woman [Красная женщина]
02 - Home [ДОМ]
03 - Oathbreaker [Клятвопреступник]
04 - Book of the Stranger [Книга Неведомого]
05 - The Door [Дверь]
06 - Blood of My Blood [Кровь Моей Крови]
07 - The Broken Man [Сломленный]
08 - No One [Никто]
09 - Battle of the Bastards [Битва бастардов]
10 - The Winds of Winter [Ветра зимы]

General
Unique ID : 241065333931735007910842278646467835268 (0xB55B7E98AF48BB2EBC60A40DB774B584)
Complete name : Game.of.Thrones.S06.E10.The.Winds.of.Winter.mkv
Format : Matroska
Format version : Version 4 / Version 2
File size : 1.02 GiB
Duration : 1h 7mn
Overall bit rate : 2 150 Kbps
Movie name : Игра престолов (06-10) Ветра зимы
Encoded date : UTC 2016-06-29 22:04:59
Writing application : mkvmerge v9.2.0 ('Photograph') 64bit
Writing library : libebml v1.3.3 + libmatroska v1.4.4
Cover : Yes
Attachments : Cover.jpg / arial.ttf / Chronicles_font.ttf / GameOfThrones.ttf / GARA.TTF / Goudy_Trajan_Regular.otf / ImperatorSmallCaps.ttf / Modernist One.ttf / pala.ttf / PapyrusCyr.ttf

Video
ID : 1
Format : AVC
Format/Info : Advanced Video Codec
Format profile : High@L3.1
Format settings, CABAC : Yes
Format settings, ReFrames : 16 frames
Codec ID : V_MPEG4/ISO/AVC
Duration : 1h 7mn
Bit rate : 1 125 Kbps
Width : 720 pixels
Height : 400 pixels
Display aspect ratio : 16:9
Frame rate mode : Constant
Frame rate : 23.976 (24000/1001) fps
Color space : YUV
Chroma subsampling : 4:2:0
Bit depth : 8 bits
Scan type : Progressive
Bits/(Pixel*Frame) : 0.163
Stream size : 547 MiB (52%)
Title : Game of Thrones (06-10) The Winds of Winter
Writing library : x264 core 148 r2692kMod 64f4e24
Encoding settings : cabac=1 / ref=16 / deblock=1:0:0 / analyse=0x3:0x133 / me=umh / subme=10 / psy=1 / fade_compensate=0.00 / psy_rd=1.00:0.00 / mixed_ref=1 / me_range=24 / chroma_me=1 / trellis=2 / 8x8dct=1 / cqm=0 / deadzone=21,11 / fast_pskip=1 / chroma_qp_offset=-2 / threads=10 / lookahead_threads=1 / sliced_threads=0 / slices=4 / nr=0 / decimate=1 / interlaced=0 / bluray_compat=0 / constrained_intra=0 / fgo=0 / bframes=8 / b_pyramid=2 / b_adapt=2 / b_bias=0 / direct=3 / weightb=1 / open_gop=0 / weightp=2 / keyint=240 / keyint_min=25 / scenecut=40 / intra_refresh=0 / rc_lookahead=60 / rc=2pass / mbtree=1 / bitrate=1125 / ratetol=1.0 / qcomp=0.60 / qpmin=0 / qpmax=69 / qpstep=4 / cplxblur=20.0 / qblur=0.5 / ip_ratio=1.40 / aq=1:1.00
Language : English
Default : Yes
Forced : No

Audio #1
ID : 2
Format : AAC
Format/Info : Advanced Audio Codec
Format profile : HE-AAC / LC
Codec ID : A_AAC
Duration : 1h 7mn
Bit rate : 253 Kbps
Channel(s) : 6 channels
Channel positions : Front: L C R, Side: L R, LFE
Sampling rate : 48.0 KHz / 24.0 KHz
Frame rate : 23.438 fps (1024 spf)
Compression mode : Lossy
Delay relative to video : 43ms
Stream size : 123 MiB (12%)
Title : AAC-HE [5.1] DUB Kravec
Language : Russian
Default : Yes
Forced : No

Audio #2
ID : 3
Format : AAC
Format/Info : Advanced Audio Codec
Format profile : HE-AAC / LC
Codec ID : A_AAC
Duration : 1h 7mn
Bit rate : 256 Kbps
Channel(s) : 6 channels
Channel positions : Front: L C R, Side: L R, LFE
Sampling rate : 48.0 KHz / 24.0 KHz
Frame rate : 23.438 fps (1024 spf)
Compression mode : Lossy
Delay relative to video : 43ms
Stream size : 124 MiB (12%)
Title : AAC-HE [5.1] MVO LostFilm
Language : Russian
Default : No
Forced : No

Audio #3
ID : 4
Format : AAC
Format/Info : Advanced Audio Codec
Format profile : HE-AAC / LC
Codec ID : A_AAC
Duration : 1h 7mn
Bit rate : 254 Kbps
Channel(s) : 6 channels
Channel positions : Front: L C R, Side: L R, LFE
Sampling rate : 48.0 KHz / 24.0 KHz
Frame rate : 23.438 fps (1024 spf)
Compression mode : Lossy
Delay relative to video : 43ms
Stream size : 124 MiB (12%)
Title : AAC-HE [5.1] MVO AlexFilm
Language : Russian
Default : No
Forced : No

Audio #4
ID : 5
Format : AAC
Format/Info : Advanced Audio Codec
Format profile : HE-AAC / LC
Codec ID : A_AAC
Duration : 1h 7mn
Bit rate : 254 Kbps
Channel(s) : 6 channels
Channel positions : Front: L C R, Side: L R, LFE
Sampling rate : 48.0 KHz / 24.0 KHz
Frame rate : 23.438 fps (1024 spf)
Compression mode : Lossy
Delay relative to video : 43ms
Stream size : 123 MiB (12%)
Title : AAC-HE [5.1] ORIGINAL
Language : English
Default : No
Forced : No

Text #1
ID : 6
Format : ASS
Codec ID : S_TEXT/ASS
Codec ID/Info : Advanced Sub Station Alpha
Duration : 1h 5mn
Bit rate : 1 bps
Count of elements : 5
Compression mode : Lossless
Stream size : 572 Bytes (0%)
Title : FORCED (ASS)
Language : Russian
Default : Yes
Forced : Yes

Text #2
ID : 7
Format : UTF-8
Codec ID : S_TEXT/UTF8
Codec ID/Info : UTF-8 Plain Text
Duration : 1h 5mn
Bit rate : 0 bps
Count of elements : 2
Stream size : 168 Bytes (0%)
Title : FORCED
Language : Russian
Default : No
Forced : No

Text #3
ID : 8
Format : UTF-8
Codec ID : S_TEXT/UTF8
Codec ID/Info : UTF-8 Plain Text
Duration : 1h 2mn
Bit rate : 60 bps
Count of elements : 644
Stream size : 27.9 KiB (0%)
Title : Amedia
Language : Russian
Default : No
Forced : No

Text #4
ID : 9
Format : UTF-8
Codec ID : S_TEXT/UTF8
Codec ID/Info : UTF-8 Plain Text
Duration : 1h 2mn
Bit rate : 66 bps
Count of elements : 613
Stream size : 30.4 KiB (0%)
Title : 7kingdoms
Language : Russian
Default : No
Forced : No

Text #5
ID : 10
Format : UTF-8
Codec ID : S_TEXT/UTF8
Codec ID/Info : UTF-8 Plain Text
Duration : 59mn 58s
Bit rate : 41 bps
Count of elements : 617
Stream size : 18.3 KiB (0%)
Title : Original
Language : English
Default : No
Forced : No

Text #6
ID : 11
Format : UTF-8
Codec ID : S_TEXT/UTF8
Codec ID/Info : UTF-8 Plain Text
Duration : 1h 6mn
Bit rate : 40 bps
Count of elements : 694
Stream size : 20.0 KiB (0%)
Title : SDH
Language : English
Default : No
Forced : No



Скачать Игра.престолов.Game.of.Thrones.(сезон.06).(Джереми.Подесва.и.др.).[2016.фантастика.фэнтези.боевик.приключения.HDTVRip-AVC].[Dub.(Amedia)]+[MVO.(LostFilm.AlexFilm)]+[Eng]+[Sub.Rus.Eng].torrent без регистрации
Золото ЗОЛОТАЯ РАЗДАЧА! СКАЧАННОЕ НЕ ЗАСЧИТЫВАЕТСЯ! Золото
Дата: Зарегистрирован   [ Тип: внутренний ] Как тут cкачать?
MAGNET ссылка
MAGNET ссылка


Скачать .torrent

45 KB

Статус: проверено DHT
Скачан: торрент - 1299 раз, раздача полностью - 113 раз
Размер: 8,6 GB
Оценка:  5 (Голосов: 4)
Поблагодарили: 12
Поделиться ссылкой на эту раздачу с друзьями:
В контактеFacebookОдноклассникиTwitterLivejournalМой МирLiveinternet
 

 

Dia-Volik

[] 

aj aj aj
 

МихаНЕзатор

[] 

Это финальное обновление!!!
Раздачу необходимо скачать полностью заново!!!
Улучшение видео и все аудио-дорожки сделаны с одинаковой громкостью!!!
 
Показать сообщения:    


Вы не можете начинать темы
Вы не можете отвечать на сообщения
Вы не можете редактировать свои сообщения
Вы не можете удалять свои сообщения
Вы не можете голосовать в опросах
Вы не можете прикреплять файлы к сообщениям
Вы можете скачивать файлы