Loading...
Error

Скачать Роковые выстрелы / Parting Shots (Майкл Уиннер) [1998 г., мелодрама, комедия, криминал, DVDRip-AVC] [AVO (Живов)] торрент без регистрации

 
Статистика раздачи
Размер:  1,46 GB   |    Скачан:  32 раза
Сидов:  3  [  0 KB/s  ]  
 
Автор Сообщение

durik

[] 

Роковые выстрелы / Parting Shots

Информация о фильме
Название: Роковые выстрелы
Оригинальное название: Parting Shots
Год выхода: 1998
Жанр: мелодрама, комедия, криминал
Режиссер: Майкл Уиннер
В ролях: Крис Ри, Фелисити Кендал, Джон Клиз, Боб Хоскинс, Дайана Ригг, Бен Кингсли, Джоанна Ламли, Оливер Рид, Гарет Хант, Николас Гекс

О фильме:
Фотографу — неудачнику Гарри Стейндейлу сообщают, что у него рак и ему осталось жить всего три месяца. Тогда Гарри решает прихватить в мир иной еще пятерых, принесших ему в этой жизни больше всего страданий.
Гарри осуществляет свой план, заодно встречая девушку своей мечты. Жизнь наконец обретает для Гарри смысл, и он смело ждет своего конца. И тут выясняется, что Гарри совсем не болен…



Страна: Великобритания
Студия: Scimitar Films, Michael Winner Ltd.
Продолжительность: 01:34:30
Перевод: Авторский (одноголосый закадровый) - Ю.Сербин

Файл
Кодек: AVC
Качество: DVDRip-AVC
Видео: 704@568@1010x568, 2015 kbps, 25 fps, 0,202 Bits/(Pixel*Frame)
Звук: AC3, 48 kHz, 2 ch, 192 kbps
Субтитры: Нет
General
Unique ID : 182080252141169528178502583472861200096 (0x88FB61886E6656D58DD49F891867BEE0)
Complete name : E:\Parting.Shots.1998.DVDRip-AVC_by_Bathory.mkv
Format : Matroska
Format version : Version 2
File size : 1.46 GiB
Duration : 1h 34mn
Overall bit rate : 2 207 Kbps
Encoded date : UTC 2016-04-25 18:46:49
Writing application : mkvmerge v9.1.0 ('Little Earthquakes') 32bit
Writing library : libebml v1.3.3 + libmatroska v1.4.4
DURATION : 01:34:29.984000000
NUMBER_OF_FRAMES : 177187
NUMBER_OF_BYTES : 136079616
_STATISTICS_WRITING_APP : mkvmerge v9.1.0 ('Little Earthquakes') 32bit
_STATISTICS_WRITING_DATE_UTC : 2016-04-25 18:46:49
_STATISTICS_TAGS : BPS DURATION NUMBER_OF_FRAMES NUMBER_OF_BYTES

Video
ID : 1
Format : AVC
Format/Info : Advanced Video Codec
Format profile : High@L4.1
Format settings, CABAC : Yes
Format settings, ReFrames : 12 frames
Codec ID : V_MPEG4/ISO/AVC
Duration : 1h 34mn
Bit rate : 2 015 Kbps
Width : 704 pixels
Height : 568 pixels
Display aspect ratio : 16:9
Frame rate mode : Constant
Frame rate : 25.000 fps
Color space : YUV
Chroma subsampling : 4:2:0
Bit depth : 8 bits
Scan type : Progressive
Bits/(Pixel*Frame) : 0.202
Stream size : 1.30 GiB (89%)
Writing library : x264 core 148 r2692 64f4e24
Encoding settings : cabac=1 / ref=12 / deblock=1:-1:0 / analyse=0x3:0x133 / me=umh / subme=11 / psy=1 / psy_rd=1.20:0.16 / mixed_ref=1 / me_range=32 / chroma_me=1 / trellis=2 / 8x8dct=1 / cqm=0 / deadzone=21,11 / fast_pskip=0 / chroma_qp_offset=-3 / threads=12 / lookahead_threads=3 / sliced_threads=0 / nr=0 / decimate=0 / interlaced=0 / bluray_compat=0 / constrained_intra=0 / bframes=16 / b_pyramid=2 / b_adapt=2 / b_bias=0 / direct=3 / weightb=1 / open_gop=0 / weightp=2 / keyint=250 / keyint_min=25 / scenecut=0 / intra_refresh=0 / rc_lookahead=60 / rc=2pass / mbtree=1 / bitrate=2015 / ratetol=1.0 / qcomp=0.70 / qpmin=0 / qpmax=69 / qpstep=4 / cplxblur=15.0 / qblur=0.5 / vbv_maxrate=50000 / vbv_bufsize=62500 / nal_hrd=none / filler=0 / ip_ratio=1.40 / aq=2:1.00
Default : Yes
Forced : No

Audio
ID : 2
Format : AC-3
Format/Info : Audio Coding 3
Mode extension : CM (complete main)
Format settings, Endianness : Big
Codec ID : A_AC3
Duration : 1h 34mn
Bit rate mode : Constant
Bit rate : 192 Kbps
Channel(s) : 2 channels
Channel positions : Front: L R
Sampling rate : 48.0 KHz
Bit depth : 16 bits
Compression mode : Lossy
Stream size : 130 MiB (9%)
Language : new
Default : Yes
Forced : No
Релиз от:

Автор рипа: Bathory



Скачать Роковые.выстрелы.Parting.Shots.(Майкл.Уиннер).[1998.г.мелодрама.комедия.криминал.DVDRip-AVC].[AVO.(Живов)].torrent без регистрации
Золото ЗОЛОТАЯ РАЗДАЧА! СКАЧАННОЕ НЕ ЗАСЧИТЫВАЕТСЯ! Золото
Дата: Зарегистрирован   [ Тип: внешний ] Как тут cкачать?
MAGNET ссылка
MAGNET ссылка


Скачать .torrent

15 KB

Статус: проверено DHT
Скачан: торрент - 32 раз, раздача полностью - 3 раз
Размер: 1,46 GB
Оценка:  - (Голосов: 0)
Поблагодарили: 2
Поделиться ссылкой на эту раздачу с друзьями:
В контактеFacebookОдноклассникиTwitterLivejournalМой МирLiveinternet
 

 
Показать сообщения:    


Вы не можете начинать темы
Вы не можете отвечать на сообщения
Вы не можете редактировать свои сообщения
Вы не можете удалять свои сообщения
Вы не можете голосовать в опросах
Вы не можете прикреплять файлы к сообщениям
Вы можете скачивать файлы