Loading...
Error

Скачать Иисус / Jesus (Джон Хейман) [1979, драма, биография, история, HDRip] [Dub] торрент без регистрации

 
Статистика раздачи
Размер:  1,45 GB   |    Скачан:  35 раз
Сидов:  1  [  0 KB/s  ]  
 
Автор Сообщение

Marsianka

[] 

Информация о фильме
Название: Иисус
Оригинальное название: Jesus
Год выхода: 1979
Жанр: драма, биография, история
Режиссер: Джон Хейман / John Heyman
В ролях: Брайан Дикон, Ричард Кайли, Ривка Ньюман, Нико Нитай, Йосси Шиллоах, Моско Алкалай, Коби Ассаф

О фильме:
Фильм «Иисус» — экранизация Евангелия от Луки. Как бы много различных фильмов вы ни видели, фильм "Иисус" отличается от любого из них. Этот фильм- честное повествование о жизни Христа, в буквальном смысле слова, изменяющее жизнь. Фильм "Иисус" переведен на большее количество языков, чем какой-бы то ни было еще. Ни один другой фильм за всю историю кинематографа не собирал такой громадной аудитории. В качестве основы для диалогов и событий фильма было использовано Евангелие от Луки. Прежде чем начать натурные сьемки в Израиле, были проведены скрупулезные исследования и подготовка, занявшие 5 лет. В специальных мастерских были изготовлены глиняные изделия, инструменты и одежда по образцам первого века от Рождества Христова."Мы хотели создать такой фильм,- сказал Пол Эшлеман, директор отдела по распространению фильма по всему миру,- который бы дал возможность зрителям лучше понять, что этот Человек, изменивший ход истории и продолжающий изменять жизнь в наши дни, сейчас является: ни БОГОМ, и ни человеком, Иисус сын БОЖИЙ (Наш Господь)" .



Страна: США
Студия: Inspirathional films
Продолжительность: 02:07:54
Перевод : Профессиональный (дублированный)

Файл
Формат: AVI
Качество: HDRip
Видео: XviD, 720x400, 23.976 fps, 1423 kbps
Звук: AC3, 2 ch, ~192 kbps
Общее
Полное имя : Jesus.1979.HDRip.1450MB.MegaPeer.avi
Формат : AVI
Формат/Информация : Audio Video Interleave
Размер файла : 1,45 Гбайт
Продолжительность : 2 ч. 7 м.
Общий поток : 1625 Кбит/сек
Программа кодирования : VirtualDubMod 1.5.10.3 | www.virtualdub-fr.org || (build 2550/release)
Библиотека кодирования : VirtualDubMod build 2550/release

Видео
Идентификатор : 0
Формат : MPEG-4 Visual
Профиль формата : Advanced Simple@L5
Параметр BVOP формата : 1
Параметр QPel формата : Нет
Параметр GMC формата : Без точки перехода
Параметр матрицы формата : Выборочная
Идентификатор кодека : XVID
Идентификатор кодека/Подсказка : XviD
Продолжительность : 2 ч. 7 м.
Битрейт : 1423 Кбит/сек
Ширина : 720 пикселей
Высота : 400 пикселей
Соотношение сторон : 16:9
Частота кадров : 23,976 (23976/1000) кадра/сек
Цветовое пространство : YUV
Субдискретизация насыщенности : 4:2:0
Битовая глубина : 8 бит
Тип развёртки : Прогрессивная
Метод сжатия : С потерями
Бит/(Пиксели*Кадры) : 0.206
Размер потока : 1,27 Гбайт (88%)
Библиотека кодирования : XviD 73

Аудио
Идентификатор : 1
Формат : AC-3
Формат/Информация : Audio Coding 3
Расширение режима : CM (complete main)
Параметр Endianness формата : Big
Идентификатор кодека : 2000
Продолжительность : 2 ч. 7 м.
Вид битрейта : Постоянный
Битрейт : 192 Кбит/сек
Каналы : 2 канала
Расположение каналов : Front: L R
Частота : 48,0 КГц
Частота кадров : 31,250 кадров/сек (1536 spf)
Метод сжатия : С потерями
Размер потока : 176 Мбайт (12%)
Выравнивание : Разделение по промежуткам
Продолжительность промежутка : 42 мс. (1,00 видеокадр)
Время предзагрузки промежутка : 500 мс.



Скачать Иисус.Jesus.(Джон.Хейман).[1979.драма.биография.история.HDRip].[Dub].torrent без регистрации
Золото ЗОЛОТАЯ РАЗДАЧА! СКАЧАННОЕ НЕ ЗАСЧИТЫВАЕТСЯ! Золото
Дата: Зарегистрирован   [ Тип: внутренний ] Как тут cкачать?
MAGNET ссылка
MAGNET ссылка


Скачать .torrent

15 KB

Статус: проверено DHT
Скачан: торрент - 35 раз, раздача полностью - 8 раз
Размер: 1,45 GB
Оценка:  - (Голосов: 0)
Поблагодарили: 1
Поделиться ссылкой на эту раздачу с друзьями:
В контактеFacebookОдноклассникиTwitterLivejournalМой МирLiveinternet
 

 
Показать сообщения:    


Вы не можете начинать темы
Вы не можете отвечать на сообщения
Вы не можете редактировать свои сообщения
Вы не можете удалять свои сообщения
Вы не можете голосовать в опросах
Вы не можете прикреплять файлы к сообщениям
Вы можете скачивать файлы