Loading...
Error

Скачать Кэндимэн 2: Прощание с плотью / Candyman II: Farewell to the Flesh (Билл Кондон) [1995, ужасы, HDRip-AVC] [MVO]+[DVO]+[AVO]x3+[Sub] торрент без регистрации

 
Статистика раздачи
Размер:  2,43 GB   |    Скачан:  38 раз
Сидов:  1  [  0 KB/s  ]  
 
Автор Сообщение

Marsianka

[] 

Производство: США / PolyGram Filmed Entertainment, Propaganda Films
Жанр: ужасы

Режиссер: Билл Кондон
Актеры: Тони Тодд, Келли Роуэн, Уильям О’Лири, Билл Нанн, Мэтт Кларк, Дэвид Джианопулос, Фэй Хаузер, Джошуа Гибран Мэйвизер, Тимоти Кархарт, Вероника Картрайт

Описание:
Новый Орлеан. Произнеси пять раз его имя, и он появится. Железный крюк вместо руки да пчелы, летающие вокруг него. Когда — то, сразу после окончания гражданской войны в США, чернокожий раб Дэниел Робитайл пострадал за свою любовь к белой девушке Кэролайн. Отец возлюбленной вместе с другими богатыми землевладельцами отрезали кисть руки раба, обмазали тело медом и оставили того умирать в чистом поле под палящим солнцем и роящими над ним злыми пчелами. Смерть была медленной и мучительной. Именно отсюда пошло его прозвище — Кэндимен. В наше время девушка Энни, прямой потомок Кэролайн, неосторожно произносит магическое заклинание, и Кэндимен появляется. Вместе с ним появляются и многочисленные трупы…



Возраст: 16+ (зрителям, достигшим 16 лет)
Рейтинг MPAA: R (лицам до 17 лет обязательно присутствие взрослого)
Дата мировой премьеры: 17 марта 1995

Релиз от: K.E.N (NNM-CLUB)
Продолжительность: 01:35:06
Качество видео: HDRip-AVC
Видео: AVC/H.264, 1024x556, ~2696 Kbps
Профессиональный многоголосый, профессиональный двухголосый, авторский
Язык субтитров: Английский
Вид субтитров: Вшитые отключаемые
Аудио #1: AC-3, 48.0 KHz, 2 ch, 192 Kbps, CBR (Russian) - многоголосый
Аудио #2: AC-3, 48.0 KHz, 2 ch, 192 Kbps, CBR (Russian) - двухголосый
Аудио #3: AC-3, 48.0 KHz, 2 ch, 192 Kbps, CBR (Russian) - авторский А.Гаврилов
Аудио #4: AC-3, 48.0 KHz, 2 ch, 192 Kbps, CBR (Russian) - авторский С.Визгунов
Аудио #5: AC-3, 48.0 KHz, 2 ch, 192 Kbps, CBR (Russian) - авторский А.Кашкин
[code]
Формат : Matroska
Версия формата : Version 2
Размер файла : 2,43 Гбайт
Продолжительность : 1 ч. 35 м.
Общий поток : 3658 Кбит/сек
Дата кодирования : UTC 2016-05-02 14:05:36
Программа кодирования : mkvmerge v5.3.0 ('I could have danced') built on Feb 9 2012 10:38:07
Библиотека кодирования : libebml v1.2.3 + libmatroska v1.3.0
Attachment : Yes

Видео
Идентификатор : 1
Формат : AVC
Формат/Информация : Advanced Video Codec
Профиль формата : High@L4.1
Параметр CABAC формата : Да
Параметр ReFrames формата : 10 кадров
Идентификатор кодека : V_MPEG4/ISO/AVC
Продолжительность : 1 ч. 35 м.
Битрейт : 2696 Кбит/сек
Ширина : 1024 пикселя
Высота : 556 пикселей
Соотношение сторон : 1,85:1
Режим частоты кадров : Постоянный
Частота кадров : 23,976 кадра/сек
Цветовое пространство : YUV
Субдискретизация насыщенности : 4:2:0
Битовая глубина : 8 бит
Тип развёртки : Прогрессивная
Бит/(Пиксели*Кадры) : 0.198
Размер потока : 1,74 Гбайт (72%)
Библиотека кодирования : x264 core 146 r2538 121396c
Настройки программы : cabac=1 / ref=10 / deblock=1:-3:-3 / analyse=0x3:0x133 / me=umh / subme=10 / psy=1 / psy_rd=1.00:0.10 / mixed_ref=1 / me_range=32 / chroma_me=1 / trellis=2 / 8x8dct=1 / cqm=0 / deadzone=21,11 / fast_pskip=0 / chroma_qp_offset=-3 / threads=12 / lookahead_threads=2 / sliced_threads=0 / nr=0 / decimate=0 / interlaced=0 / bluray_compat=0 / constrained_intra=0 / bframes=8 / b_pyramid=2 / b_adapt=2 / b_bias=0 / direct=3 / weightb=1 / open_gop=0 / weightp=2 / keyint=240 / keyint_min=23 / scenecut=40 / intra_refresh=0 / rc=2pass / mbtree=0 / bitrate=2696 / ratetol=1.0 / qcomp=0.60 / qpmin=0 / qpmax=69 / qpstep=4 / cplxblur=20.0 / qblur=0.5 / ip_ratio=1.40 / pb_ratio=1.30 / aq=1:0.70
Default : Да
Forced : Нет

Аудио #1
Идентификатор : 2
Формат : AC-3
Формат/Информация : Audio Coding 3
Расширение режима : CM (complete main)
Параметр Endianness формата : Big
Идентификатор кодека : A_AC3
Продолжительность : 1 ч. 35 м.
Вид битрейта : Постоянный
Битрейт : 192 Кбит/сек
Каналы : 2 канала
Расположение каналов : Front: L R
Частота : 48,0 КГц
Битовая глубина : 16 бит
Метод сжатия : С потерями
Размер потока : 131 Мбайт (5%)
Заголовок : MVO
Язык : Russian
Default : Да
Forced : Нет

Аудио #2
Идентификатор : 3
Формат : AC-3
Формат/Информация : Audio Coding 3
Расширение режима : CM (complete main)
Параметр Endianness формата : Big
Идентификатор кодека : A_AC3
Продолжительность : 1 ч. 35 м.
Вид битрейта : Постоянный
Битрейт : 192 Кбит/сек
Каналы : 2 канала
Расположение каналов : Front: L R
Частота : 48,0 КГц
Битовая глубина : 16 бит
Метод сжатия : С потерями
Размер потока : 131 Мбайт (5%)
Заголовок : DVO (НТВ+)
Язык : Russian
Default : Нет
Forced : Нет

Аудио #3
Идентификатор : 4
Формат : AC-3
Формат/Информация : Audio Coding 3
Расширение режима : CM (complete main)
Параметр Endianness формата : Big
Идентификатор кодека : A_AC3
Продолжительность : 1 ч. 35 м.
Вид битрейта : Постоянный
Битрейт : 192 Кбит/сек
Каналы : 2 канала
Расположение каналов : Front: L R
Частота : 48,0 КГц
Битовая глубина : 16 бит
Метод сжатия : С потерями
Размер потока : 131 Мбайт (5%)
Заголовок : AVO (А. Гаврилов)
Язык : Russian
Default : Нет
Forced : Нет

Аудио #4
Идентификатор : 5
Формат : AC-3
Формат/Информация : Audio Coding 3
Расширение режима : CM (complete main)
Параметр Endianness формата : Big
Идентификатор кодека : A_AC3
Продолжительность : 1 ч. 35 м.
Вид битрейта : Постоянный
Битрейт : 192 Кбит/сек
Каналы : 2 канала
Расположение каналов : Front: L R
Частота : 48,0 КГц
Битовая глубина : 16 бит
Метод сжатия : С потерями
Размер потока : 131 Мбайт (5%)
Заголовок : AVO (С. Визгунов)
Язык : Russian
Default : Нет
Forced : Нет

Аудио #5
Идентификатор : 6
Формат : AC-3
Формат/Информация : Audio Coding 3
Расширение режима : CM (complete main)
Параметр Endianness формата : Big
Идентификатор кодека : A_AC3
Продолжительность : 1 ч. 35 м.
Вид битрейта : Постоянный
Битрейт : 192 Кбит/сек
Каналы : 2 канала
Расположение каналов : Front: L R
Частота : 48,0 КГц
Битовая глубина : 16 бит
Метод сжатия : С потерями
Размер потока : 131 Мбайт (5%)
Заголовок : AVO (А. Кашкин)
Язык : Russian
Default : Нет
Forced : Нет

Текст
Идентификатор : 7
Формат : UTF-8
Идентификатор кодека : S_TEXT/UTF8
Идентификатор кодека/Информация : UTF-8 Plain Text
Язык : English
Default : Нет
Forced : Нет

Меню
00:00:00.000 : en:00:00:00.000
00:07:43.963 : en:00:07:43.963
00:15:28.386 : en:00:15:28.386
00:21:44.929 : en:00:21:44.929
00:30:27.492 : en:00:30:27.492
00:39:52.599 : en:00:39:52.599
00:46:29.870 : en:00:46:29.870
00:55:55.561 : en:00:55:55.561
01:06:10.425 : en:01:06:10.425
01:13:35.202 : en:01:13:35.202
01:19:36.605 : en:01:19:36.605
01:28:38.730 : en:01:28:38.730



Скачать Кэндимэн.2.Прощание.с.плотью.Candyman.II.Farewell.to.the.Flesh.(Билл.Кондон).[1995.ужасы.HDRip-AVC].[MVO]+[DVO]+[AVO]x3+[Sub].torrent без регистрации
Золото ЗОЛОТАЯ РАЗДАЧА! СКАЧАННОЕ НЕ ЗАСЧИТЫВАЕТСЯ! Золото
Дата: Зарегистрирован   [ Тип: внутренний ] Как тут cкачать?
MAGNET ссылка
MAGNET ссылка


Скачать .torrent

13 KB

Статус: проверено DHT
Скачан: торрент - 38 раз, раздача полностью - 2 раз
Размер: 2,43 GB
Оценка:  - (Голосов: 0)
Поблагодарили: 1
Поделиться ссылкой на эту раздачу с друзьями:
В контактеFacebookОдноклассникиTwitterLivejournalМой МирLiveinternet
 

 
Показать сообщения:    


Вы не можете начинать темы
Вы не можете отвечать на сообщения
Вы не можете редактировать свои сообщения
Вы не можете удалять свои сообщения
Вы не можете голосовать в опросах
Вы не можете прикреплять файлы к сообщениям
Вы можете скачивать файлы