Loading...
Error

Скачать Золотая вдова / Une veuve en or (Мишель Одиар) [1969, комедия, BDRip-AVC] [DVO]+[Оригинал] торрент без регистрации

 
Статистика раздачи
Размер:  2,18 GB   |    Скачан:  33 раза
Сидов:  1  [  0 KB/s  ]  
 
Автор Сообщение

Marsianka

[] 

Золотая вдова / Une veuve en or

Страна: Италия, Франция, Германия (ФРГ)
Жанр: комедия
Год выпуска: 1969
Продолжительность: 01:29:23

Перевод: Профессиональный (двухголосый закадровый) ОРТ-Видео
Cубтитры: нет
Оригинальная аудиодорожка: французский

Режиссер: Мишель Одиар / Michel Audiard

В ролях: Мишель Мерсье, Клод Риш, Роже Карель, Жан Карме, Даниэль Секкальди, Жан-Пьер Даррас, Марио Давид, Фолько Люлли, Андре Пусс

Описание: Жила-была молодая семья, Дельфина и Антуан. И были бы они счастливы и беззаботны, если бы не одно обстоятельство. Богатый дядюшка оставил Дельфине огромное наследство, но с условием, что она получит деньги, если ее муж умрет. Антуан, конечно, симпатичный парень, но сумма слишком высока. Теперь его пытаются убить собственная жена, растяпа-киллер и даже команда головорезов. Где бы ни появился Антуан, трупы сыплются со всех сторон, а ему все ни почем. Но как - же все-таки получить деньги? Для этого муж и жена должны играть в одной команде…



Качество видео: BDRip-AVC
Формат видео: MKV

Видео: AVC, 1080x648 (16:9), 24.000 fps, 3 071 Kbps (0.183 bit/pixel)
Аудио #1: AC-3, 48.0 KHz, 2 ch, 192 Kbps, CBR (Russian)
Аудио #2: AC-3, 48.0 KHz, 2 ch, 224 Kbps, CBR (French)

Общее
Уникальный идентификатор : 235455121331124400824644319498251640547 (0xB12301C26F62EF4F9D7604A257059EE3)
Формат : Matroska
Версия формата : Version 4 / Version 2
Размер файла : 2,18 Гбайт
Продолжительность : 1 ч. 29 м.
Общий поток : 3489 Кбит/сек
Дата кодирования : UTC 2016-05-04 06:13:37
Программа кодирования : mkvmerge v9.1.0 ('Little Earthquakes') 64bit
Библиотека кодирования : libebml v1.3.3 + libmatroska v1.4.4

Видео
Идентификатор : 1
Формат : AVC
Формат/Информация : Advanced Video Codec
Профиль формата : High@L4.1
Параметр CABAC формата : Да
Параметр ReFrames формата : 11 кадров
Идентификатор кодека : V_MPEG4/ISO/AVC
Продолжительность : 1 ч. 29 м.
Битрейт : 3071 Кбит/сек
Ширина : 1080 пикселей
Высота : 648 пикселей
Соотношение сторон : 16:9
Режим частоты кадров : Постоянный
Частота кадров : 24,000 кадра/сек
Цветовое пространство : YUV
Субдискретизация насыщенности : 4:2:0
Битовая глубина : 8 бит
Тип развёртки : Прогрессивная
Бит/(Пиксели*Кадры) : 0.183
Размер потока : 1,92 Гбайт (88%)
Библиотека кодирования : x264 core 148 r2638 7599210
Настройки программы : cabac=1 / ref=11 / deblock=1:0:0 / analyse=0x3:0x133 / me=umh / subme=10 / psy=1 / psy_rd=1.00:0.00 / mixed_ref=1 / me_range=32 / chroma_me=1 / trellis=2 / 8x8dct=1 / cqm=0 / deadzone=21,11 / fast_pskip=1 / chroma_qp_offset=-2 / threads=6 / lookahead_threads=1 / sliced_threads=0 / nr=0 / decimate=1 / interlaced=0 / bluray_compat=0 / constrained_intra=0 / bframes=10 / b_pyramid=2 / b_adapt=2 / b_bias=0 / direct=3 / weightb=1 / open_gop=0 / weightp=2 / keyint=240 / keyint_min=24 / scenecut=40 / intra_refresh=0 / rc_lookahead=60 / rc=2pass / mbtree=0 / bitrate=3071 / ratetol=1.0 / qcomp=0.60 / qpmin=0 / qpmax=69 / qpstep=4 / cplxblur=20.0 / qblur=0.5 / vbv_maxrate=62500 / vbv_bufsize=78125 / nal_hrd=none / filler=0 / ip_ratio=1.40 / pb_ratio=1.30 / aq=1:1.00
Default : Да
Forced : Нет

Аудио #1
Идентификатор : 2
Формат : AC-3
Формат/Информация : Audio Coding 3
Расширение режима : CM (complete main)
Параметр Endianness формата : Big
Идентификатор кодека : A_AC3
Продолжительность : 1 ч. 29 м.
Вид битрейта : Постоянный
Битрейт : 192 Кбит/сек
Каналы : 2 канала
Расположение каналов : Front: L R
Частота : 48,0 КГц
Частота кадров : 31,250 кадров/сек (1536 spf)
Метод сжатия : С потерями
Размер потока : 123 Мбайт (6%)
Заголовок : Russian
Язык : Russian
Default : Да
Forced : Нет

Аудио #2
Идентификатор : 3
Формат : AC-3
Формат/Информация : Audio Coding 3
Расширение режима : CM (complete main)
Параметр Endianness формата : Big
Идентификатор кодека : A_AC3
Продолжительность : 1 ч. 29 м.
Вид битрейта : Постоянный
Битрейт : 224 Кбит/сек
Каналы : 2 канала
Расположение каналов : Front: L R
Частота : 48,0 КГц
Частота кадров : 31,250 кадров/сек (1536 spf)
Метод сжатия : С потерями
Размер потока : 143 Мбайт (6%)
Заголовок : French
Язык : French
Default : Нет
Forced : Нет
[Information] [03.05.2016 22:23:23] Standard error stream
-[Information] [03.05.2016 22:23:34] raw [info]: 1080x648p 16:15 @ 24/1 fps (cfr)
-[Information] [03.05.2016 22:23:34] x264 [info]: using SAR=16/15
-[Information] [03.05.2016 22:23:34] x264 [info]: using cpu capabilities: MMX2 SSE2Fast SSSE3 SSE4.2 AVX
-[Information] [03.05.2016 22:23:34] x264 [info]: profile High, level 4.1
-[Information] [04.05.2016 7:06:34] x264 [info]: frame I:985 Avg QP:18.30 size:100742
-[Information] [04.05.2016 7:06:34] x264 [info]: frame P:27215 Avg QP:21.14 size: 30287
-[Information] [04.05.2016 7:06:34] x264 [info]: frame B:100518 Avg QP:22.77 size: 11293
-[Information] [04.05.2016 7:06:34] x264 [info]: consecutive B-frames: 2.3% 3.3% 8.0% 11.4% 13.9% 47.6% 7.0% 2.1% 1.6% 1.4% 1.4%
-[Information] [04.05.2016 7:06:34] x264 [info]: mb I I16..4: 4.2% 84.2% 11.5%
-[Information] [04.05.2016 7:06:34] x264 [info]: mb P I16..4: 0.7% 10.2% 0.9% P16..4: 42.5% 22.2% 15.4% 0.3% 0.1% skip: 7.9%
-[Information] [04.05.2016 7:06:34] x264 [info]: mb B I16..4: 0.0% 1.0% 0.1% B16..8: 41.2% 10.0% 2.8% direct: 5.5% skip:39.3% L0:46.2% L1:47.7% BI: 6.1%
-[Information] [04.05.2016 7:06:34] x264 [info]: 8x8 transform intra:87.5% inter:67.8%
-[Information] [04.05.2016 7:06:34] x264 [info]: direct mvs spatial:98.6% temporal:1.4%
-[Information] [04.05.2016 7:06:34] x264 [info]: coded y,uvDC,uvAC intra: 91.1% 69.8% 34.8% inter: 27.9% 14.6% 0.8%
-[Information] [04.05.2016 7:06:34] x264 [info]: i16 v,h,dc,p: 57% 15% 8% 20%
-[Information] [04.05.2016 7:06:34] x264 [info]: i8 v,h,dc,ddl,ddr,vr,hd,vl,hu: 11% 8% 7% 10% 14% 13% 13% 11% 11%
-[Information] [04.05.2016 7:06:34] x264 [info]: i4 v,h,dc,ddl,ddr,vr,hd,vl,hu: 12% 8% 3% 9% 15% 15% 14% 11% 12%
-[Information] [04.05.2016 7:06:34] x264 [info]: i8c dc,h,v,p: 36% 27% 23% 15%
-[Information] [04.05.2016 7:06:34] x264 [info]: Weighted P-Frames: Y:5.4% UV:1.4%
-[Information] [04.05.2016 7:06:34] x264 [info]: ref P L0: 43.7% 13.3% 17.3% 5.7% 5.5% 3.6% 3.7% 1.8% 1.9% 1.5% 1.7% 0.3% 0.0%
-[Information] [04.05.2016 7:06:34] x264 [info]: ref B L0: 66.4% 13.1% 6.9% 3.8% 2.8% 2.5% 2.0% 1.3% 0.7% 0.4%
-[Information] [04.05.2016 7:06:34] x264 [info]: ref B L1: 91.3% 8.7%
-[Information] [04.05.2016 7:06:34] x264 [info]: kb/s:3070.76
-[Information] [04.05.2016 7:06:34] encoded 128718 frames, 4.10 fps, 3070.76 kb/s



Скачать Золотая.вдова.Une.veuve.en.or.(Мишель.Одиар).[1969.комедия.BDRip-AVC].[DVO]+[Оригинал].torrent без регистрации
Золото ЗОЛОТАЯ РАЗДАЧА! СКАЧАННОЕ НЕ ЗАСЧИТЫВАЕТСЯ! Золото
Дата: Зарегистрирован   [ Тип: внутренний ] Как тут cкачать?
MAGNET ссылка
MAGNET ссылка


Скачать .torrent

12 KB

Статус: проверено DHT
Скачан: торрент - 33 раз, раздача полностью - 1 раз
Размер: 2,18 GB
Оценка:  - (Голосов: 0)
Поблагодарили: 1
Поделиться ссылкой на эту раздачу с друзьями:
В контактеFacebookОдноклассникиTwitterLivejournalМой МирLiveinternet
 

 
Показать сообщения:    


Вы не можете начинать темы
Вы не можете отвечать на сообщения
Вы не можете редактировать свои сообщения
Вы не можете удалять свои сообщения
Вы не можете голосовать в опросах
Вы не можете прикреплять файлы к сообщениям
Вы можете скачивать файлы