Loading...
Error

Скачать Золотая вдова / Une veuve en or (Мишель Одиар) [1969, комедия, BDRip-AVC] [DVO]+[Оригинал] торрент без регистрации

 
Статистика раздачи
Размер:  1,46 GB   |    Скачан:  35 раз
Сидов:  1  [  0 KB/s  ]  
 
Автор Сообщение

Marsianka

[] 

Золотая вдова / Une veuve en or

Страна: Италия, Франция, Германия (ФРГ)
Жанр: комедия
Год выпуска: 1969
Продолжительность: 01:29:23

Перевод: Профессиональный (двухголосый закадровый) ОРТ-Видео
Cубтитры: нет
Оригинальная аудиодорожка: французский

Режиссер: Мишель Одиар / Michel Audiard

В ролях: Мишель Мерсье, Клод Риш, Роже Карель, Жан Карме, Даниэль Секкальди, Жан-Пьер Даррас, Марио Давид, Фолько Люлли, Андре Пусс

Описание: Жила-была молодая семья, Дельфина и Антуан. И были бы они счастливы и беззаботны, если бы не одно обстоятельство. Богатый дядюшка оставил Дельфине огромное наследство, но с условием, что она получит деньги, если ее муж умрет. Антуан, конечно, симпатичный парень, но сумма слишком высока. Теперь его пытаются убить собственная жена, растяпа-киллер и даже команда головорезов. Где бы ни появился Антуан, трупы сыплются со всех сторон, а ему все ни почем. Но как - же все-таки получить деньги? Для этого муж и жена должны играть в одной команде…



Качество видео: BDRip-AVC
Формат видео: MKV

Видео: AVC, 906x544 (16:9), 24.000 fps, 2 077 Kbps (0.176 bit/pixel)
Аудио #1: AAC LC, 48.0 KHz, 2 ch (Russian)
Аудио #2: AAC LC, 48.0 KHz, 2 ch (French)

Общее
Уникальный идентификатор : 176444960055124624586512243846918184577 (0x84BE102E92847C989EDFE3943AD81E81)
Формат : Matroska
Версия формата : Version 4 / Version 2
Размер файла : 1,46 Гбайт
Продолжительность : 1 ч. 29 м.
Общий поток : 2336 Кбит/сек
Дата кодирования : UTC 2016-05-04 19:54:05
Программа кодирования : mkvmerge v9.1.0 ('Little Earthquakes') 64bit
Библиотека кодирования : libebml v1.3.3 + libmatroska v1.4.4

Видео
Идентификатор : 1
Формат : AVC
Формат/Информация : Advanced Video Codec
Профиль формата : High@L4.1
Параметр CABAC формата : Да
Параметр ReFrames формата : 16 кадров
Идентификатор кодека : V_MPEG4/ISO/AVC
Продолжительность : 1 ч. 29 м.
Битрейт : 2077 Кбит/сек
Ширина : 906 пикселей
Высота : 544 пикселя
Соотношение сторон : 16:9
Режим частоты кадров : Постоянный
Частота кадров : 24,000 кадра/сек
Цветовое пространство : YUV
Субдискретизация насыщенности : 4:2:0
Битовая глубина : 8 бит
Тип развёртки : Прогрессивная
Бит/(Пиксели*Кадры) : 0.176
Размер потока : 1,30 Гбайт (89%)
Библиотека кодирования : x264 core 148 r2638 7599210
Настройки программы : cabac=1 / ref=16 / deblock=1:0:0 / analyse=0x3:0x133 / me=umh / subme=10 / psy=1 / psy_rd=1.00:0.00 / mixed_ref=1 / me_range=32 / chroma_me=1 / trellis=2 / 8x8dct=1 / cqm=0 / deadzone=21,11 / fast_pskip=1 / chroma_qp_offset=-2 / threads=6 / lookahead_threads=1 / sliced_threads=0 / nr=0 / decimate=1 / interlaced=0 / bluray_compat=0 / constrained_intra=0 / bframes=10 / b_pyramid=2 / b_adapt=2 / b_bias=0 / direct=3 / weightb=1 / open_gop=0 / weightp=2 / keyint=240 / keyint_min=24 / scenecut=40 / intra_refresh=0 / rc_lookahead=60 / rc=2pass / mbtree=0 / bitrate=2077 / ratetol=1.0 / qcomp=0.60 / qpmin=0 / qpmax=69 / qpstep=4 / cplxblur=20.0 / qblur=0.5 / vbv_maxrate=62500 / vbv_bufsize=78125 / nal_hrd=none / filler=0 / ip_ratio=1.40 / pb_ratio=1.30 / aq=1:1.00
Default : Да
Forced : Нет

Аудио #1
Идентификатор : 2
Формат : AAC
Формат/Информация : Advanced Audio Codec
Профиль формата : LC
Идентификатор кодека : A_AAC
Продолжительность : 1 ч. 29 м.
Битрейт : 128 Кбит/сек
Каналы : 2 канала
Расположение каналов : Front: L R
Частота : 48,0 КГц
Частота кадров : 46,875 кадров/сек (1024 spf)
Метод сжатия : С потерями
Задержка видео : 9 мс.
Размер потока : 81,8 Мбайт (5%)
Заголовок : Russian
Язык : Russian
Default : Да
Forced : Нет

Аудио #2
Идентификатор : 3
Формат : AAC
Формат/Информация : Advanced Audio Codec
Профиль формата : LC
Идентификатор кодека : A_AAC
Продолжительность : 1 ч. 29 м.
Битрейт : 128 Кбит/сек
Каналы : 2 канала
Расположение каналов : Front: L R
Частота : 48,0 КГц
Частота кадров : 46,875 кадров/сек (1024 spf)
Метод сжатия : С потерями
Задержка видео : 9 мс.
Размер потока : 81,8 Мбайт (5%)
Заголовок : French
Язык : French
Default : Нет
Forced : Нет

Меню
00:00:00.054 : en:00:00:00.054 / en:00:00:00.054
[Information] [04.05.2016 14:31:55] Standard error stream
-[Information] [04.05.2016 14:32:04] raw [info]: 906x544p 16:15 @ 24/1 fps (cfr)
-[Information] [04.05.2016 14:32:04] x264 [info]: using SAR=16/15
-[Information] [04.05.2016 14:32:04] x264 [info]: using cpu capabilities: MMX2 SSE2Fast SSSE3 SSE4.2 AVX
-[Information] [04.05.2016 14:32:04] x264 [info]: profile High, level 4.1
-[Information] [04.05.2016 22:26:39] x264 [info]: frame I:1014 Avg QP:17.89 size: 76578
-[Information] [04.05.2016 22:26:39] x264 [info]: frame P:27695 Avg QP:20.80 size: 21275
-[Information] [04.05.2016 22:26:39] x264 [info]: frame B:100009 Avg QP:22.33 size: 7254
-[Information] [04.05.2016 22:26:39] x264 [info]: consecutive B-frames: 2.4% 3.6% 8.2% 13.4% 15.2% 43.8% 6.9% 2.3% 1.5% 1.2% 1.5%
-[Information] [04.05.2016 22:26:39] x264 [info]: mb I I16..4: 4.4% 80.5% 15.1%
-[Information] [04.05.2016 22:26:39] x264 [info]: mb P I16..4: 0.6% 8.3% 1.0% P16..4: 41.8% 22.7% 16.9% 0.5% 0.1% skip: 8.1%
-[Information] [04.05.2016 22:26:39] x264 [info]: mb B I16..4: 0.0% 0.7% 0.1% B16..8: 40.2% 10.1% 2.9% direct: 4.9% skip:41.1% L0:45.3% L1:47.0% BI: 7.7%
-[Information] [04.05.2016 22:26:40] x264 [info]: 8x8 transform intra:83.8% inter:64.5%
-[Information] [04.05.2016 22:26:40] x264 [info]: direct mvs spatial:98.3% temporal:1.7%
-[Information] [04.05.2016 22:26:40] x264 [info]: coded y,uvDC,uvAC intra: 91.0% 72.2% 40.3% inter: 25.7% 13.5% 1.0%
-[Information] [04.05.2016 22:26:40] x264 [info]: i16 v,h,dc,p: 58% 14% 8% 20%
-[Information] [04.05.2016 22:26:40] x264 [info]: i8 v,h,dc,ddl,ddr,vr,hd,vl,hu: 10% 8% 8% 10% 14% 14% 14% 11% 12%
-[Information] [04.05.2016 22:26:40] x264 [info]: i4 v,h,dc,ddl,ddr,vr,hd,vl,hu: 11% 8% 3% 9% 15% 15% 14% 12% 13%
-[Information] [04.05.2016 22:26:40] x264 [info]: i8c dc,h,v,p: 37% 26% 22% 15%
-[Information] [04.05.2016 22:26:40] x264 [info]: Weighted P-Frames: Y:5.8% UV:1.3%
-[Information] [04.05.2016 22:26:40] x264 [info]: ref P L0: 44.1% 13.7% 16.1% 5.1% 4.9% 3.2% 3.2% 1.5% 1.6% 1.1% 1.2% 0.9% 1.0% 0.8% 0.9% 0.5%
-[Information] [04.05.2016 22:26:40] x264 [info]: ref B L0: 66.9% 12.3% 6.1% 3.3% 2.4% 2.2% 1.7% 1.0% 0.8% 0.8% 0.7% 0.7% 0.6% 0.4% 0.2%
-[Information] [04.05.2016 22:26:40] x264 [info]: ref B L1: 91.6% 8.4%
-[Information] [04.05.2016 22:26:40] x264 [info]: kb/s:2076.83
-[Information] [04.05.2016 22:26:40] encoded 128718 frames, 4.52 fps, 2076.83 kb/s



Скачать Золотая.вдова.Une.veuve.en.or.(Мишель.Одиар).[1969.комедия.BDRip-AVC].[DVO]+[Оригинал].torrent без регистрации
Золото ЗОЛОТАЯ РАЗДАЧА! СКАЧАННОЕ НЕ ЗАСЧИТЫВАЕТСЯ! Золото
Дата: Зарегистрирован   [ Тип: внутренний ] Как тут cкачать?
MAGNET ссылка
MAGNET ссылка


Скачать .torrent

15 KB

Статус: проверено DHT
Скачан: торрент - 35 раз, раздача полностью - 0 раз
Размер: 1,46 GB
Оценка:  - (Голосов: 0)
Поблагодарили: 1
Поделиться ссылкой на эту раздачу с друзьями:
В контактеFacebookОдноклассникиTwitterLivejournalМой МирLiveinternet
 

 
Показать сообщения:    


Вы не можете начинать темы
Вы не можете отвечать на сообщения
Вы не можете редактировать свои сообщения
Вы не можете удалять свои сообщения
Вы не можете голосовать в опросах
Вы не можете прикреплять файлы к сообщениям
Вы можете скачивать файлы