Loading...
Error

Скачать Безымянная - одна женщина в Берлине / Anonyma - Eine Frau in Berlin (Макс Фэрбербёк) [2008, драма, военный, история, DVDRip] [Полная версия] [MVO] торрент без регистрации

 
Статистика раздачи
Размер:  2,18 GB   |    Скачан:  51 раз
Сидов:  10  [  0 KB/s  ]  
 
Автор Сообщение

Marsianka

[] 

Страна: Германия, Польша
Жанр: драма, военный, история
Год выпуска: 2008

Продолжительность: 02:54:40
Перевод: Профессиональный (многоголосый, закадровый)

Режиссер: Макс Фэрбербёк / Max Färberböck

В ролях: Нина Хосс (Anonyma), Евгений Сидихин (Major Andreij Rybkin), Ирма Герман (Witwe), Рюдигер Фоглер (Eckhart), Ульрике Крумбигель (Ilse Hoch), Рольф Канис (Friedrich Hoch), Йордис Трибель (Bärbel Malthaus), Роман Грибков (Anatol), Юлиана Кёлер (Elke), Виктор Жалсанов (Mongole), Александра Куликова (Masha), Олег Чернов (Erster Vergewaltiger)
Описание: В основу сценария положен дневник немецкой журналистки Марты Хиллерс, который она начала вести в берлинском бомбоубежище 20 апреля 1945 года - в день рождения Гитлера, за десять дней до его самоубийства. Она повествует, что за первые несколько дней после взятия Берлина была неоднократно изнасилована советскими солдатами. Такая же судьба постигла многие сотни тысяч немецких женщин, сообщает издание. Военные с криком «Komm Frau!» прочесывали разбомбленные города. В дневнике Хиллерс сообщается, что они предпочитали толстух; описывается сцена, как солдаты долго гонялись между руин за женой местного булочника, пока не повалили ее на землю.
Доп. информация: Полная версия фильма.

imdb.com: 7.00 (2 614)
Качество: DVDRip | Sample
Исходник: DVD9
Контейнер: AVI
Видео: XviD, 720x400 (16:9), 1581 kbps, 25 fps, 0,220 bpp
Аудио: AC3 / 2.0 / 48 kHz / 192 kbps / 16 bit

General
Complete name : E:My_ripБезымянная.2008.DVDRip.MVO.[Youtracker].by.Дядя_Лёша.avi
Format : AVI
Format/Info : Audio Video Interleave
Format profile : OpenDML
File size : 2.18 GiB
Duration : 2h 54mn
Overall bit rate : 1 786 Kbps
Movie name : Безымянная.2008.DVDRip.MVO.[Youtracker].by.Дядя_Лёша
Writing application : VirtualDubMod 1.5.10.3 | www.virtualdub-fr.org || (build 2550/release)
Copyright : Youtracker

Video
ID : 0
Format : MPEG-4 Visual
Format profile : Advanced Simple@L5
Format settings, BVOP : 2
Format settings, QPel : No
Format settings, GMC : No warppoints
Format settings, Matrix : Custom
Codec ID : XVID
Codec ID/Hint : XviD
Duration : 2h 54mn
Bit rate : 1 581 Kbps
Width : 720 pixels
Height : 400 pixels
Display aspect ratio : 16:9
Frame rate : 25.000 fps
Color space : YUV
Chroma subsampling : 4:2:0
Bit depth : 8 bits
Scan type : Progressive
Compression mode : Lossy
Bits/(Pixel*Frame) : 0.220
Stream size : 1.93 GiB (89%)
Writing library : XviD 65

Audio
ID : 1
Format : AC-3
Format/Info : Audio Coding 3
Mode extension : CM (complete main)
Codec ID : 2000
Duration : 2h 54mn
Bit rate mode : Constant
Bit rate : 192 Kbps
Channel(s) : 2 channels
Channel positions : Front: L R
Sampling rate : 48.0 KHz
Bit depth : 16 bits
Compression mode : Lossy
Stream size : 240 MiB (11%)
Alignment : Split accross interleaves
Interleave, duration : 40 ms (1.00 video frame)
Interleave, preload duration : 500 ms



Скачать Безымянная.-.одна.женщина.в.Берлине.Anonyma.-.Eine.Frau.in.Berlin.(Макс.Фэрбербёк).[2008.драма.военный.история.DVDRip].[Полная.версия].[MVO].torrent без регистрации
Золото ЗОЛОТАЯ РАЗДАЧА! СКАЧАННОЕ НЕ ЗАСЧИТЫВАЕТСЯ! Золото
Дата: Зарегистрирован   [ Тип: внешний ] Как тут cкачать?
MAGNET ссылка
MAGNET ссылка


Скачать .torrent

12 KB

Статус: проверено DHT
Скачан: торрент - 51 раз, раздача полностью - 88 раз
Размер: 2,18 GB
Оценка:  - (Голосов: 0)
Поблагодарили: 2
Поделиться ссылкой на эту раздачу с друзьями:
В контактеFacebookОдноклассникиTwitterLivejournalМой МирLiveinternet
 

 
Показать сообщения:    


Вы не можете начинать темы
Вы не можете отвечать на сообщения
Вы не можете редактировать свои сообщения
Вы не можете удалять свои сообщения
Вы не можете голосовать в опросах
Вы не можете прикреплять файлы к сообщениям
Вы можете скачивать файлы