Loading...
Error

Скачать Острые козырьки / Peaky Blinders (Сезон 03) [2016, драма, криминал, HDTVRip] [MVO] (AlexFilm) торрент без регистрации

 
Статистика раздачи
Размер:  4 GB   |    Скачан:  160 раз
Сидов:  1  [  0 KB/s  ]  
 
Автор Сообщение

leon030982

[] 


Заточенные кепки /Острые козырьки / Peaky Blinders


Год выпуска: 2016
Страна: Великобритания
Жанр: драма, криминал
Продолжительность: 1x ~00:59:00
Перевод: Профессиональный (многоголосый) • AlexFilm
Субтитры: нет

Режиссер: Отто Баферст / Otto Bathurst, Том Харпер / Tom Harper

В ролях:
Киллиан Мёрфи, Сэм Нилл, Хелен МакКрори, Аннабелль Уоллис, Иддо Голдберг, Пол Андерсон, Софи Рандл, Джо Коул, Чарли Крид-Майлз, Том Харди


Британский сериал о криминальном мире Бирмингема 20-х годов прошлого века, в котором многолюдная семья Шелби стала одной из самых жестоких и влиятельных гангстерских банд послевоенного времени. Фирменным знаком группировки, промышлявшей грабежами и азартными играми, стали зашитые в козырьки лезвия.



Качество: HDTVRip
Формат: AVI
Видео кодек: XviD
Аудио кодек: MP3
Видео: 720x384, 25 fps, XviD build 65 ~1340 kbps avg
Аудио: 48 kHz, MP3, 2 ch, ~128.00 kbps avg [MVO]
Аудио: 48 kHz, MP3, 2 ch, ~128.00 kbps avg [ENG]

Релиз:

Перевод: Константин Кривоногов
Монтаж и сведение звука: Михаил Шорыгин
Роли озвучивали:
Евгения Тихонова
Владимир Курдов
Михаил Суслов
Константин Погодаев
Рустам Шайхиев


Добавлена 6-я серия!

Код:

General
Complete name                            : E:\INTERNET\Peaky.Blinders - Season 3 (AlexFilm) HDTVRip\Peaky.Blinders.s03e01.HDTVRip.Rus.Eng.AlexFilm.avi
Format                                   : AVI
Format/Info                              : Audio Video Interleave
File size                                : 667 MiB
Duration                                 : 55mn 42s
Overall bit rate                         : 1 673 Kbps
Movie name                               : Peaky Blinders 3x01 @ AlexFilm
Writing application                      : VirtualDubMod 1.5.10.2 (build 2540/release)
Writing library                          : VirtualDubMod build 2540/release

Video
ID                                       : 0
Format                                   : MPEG-4 Visual
Format profile                           : Advanced Simple@L5
Format settings, BVOP                    : No
Format settings, QPel                    : No
Format settings, GMC                     : No warppoints
Format settings, Matrix                  : Default (H.263)
Codec ID                                 : XVID
Codec ID/Hint                            : XviD
Duration                                 : 55mn 42s
Bit rate                                 : 1 340 Kbps
Width                                    : 720 pixels
Height                                   : 384 pixels
Display aspect ratio                     : 1.85:1
Frame rate                               : 25.000 fps
Color space                              : YUV
Chroma subsampling                       : 4:2:0
Bit depth                                : 8 bits
Scan type                                : Progressive
Compression mode                         : Lossy
Bits/(Pixel*Frame)                       : 0.194
Stream size                              : 534 MiB (80%)
Writing library                          : XviD 73

Audio #1
ID                                       : 1
Format                                   : MPEG Audio
Format version                           : Version 1
Format profile                           : Layer 3
Mode                                     : Joint stereo
Mode extension                           : MS Stereo
Codec ID                                 : 55
Codec ID/Hint                            : MP3
Duration                                 : 55mn 42s
Bit rate mode                            : Constant
Bit rate                                 : 128 Kbps
Channel(s)                               : 2 channels
Sampling rate                            : 48.0 KHz
Compression mode                         : Lossy
Stream size                              : 51.0 MiB (8%)
Alignment                                : Aligned on interleaves
Title                                    : Russian (AlexFilm)
Writing library                          : LAME3.99r
Encoding settings                        : -m j -V 4 -q 3 -lowpass 18 -b 128

Audio #2
ID                                       : 2
Format                                   : MPEG Audio
Format version                           : Version 1
Format profile                           : Layer 3
Mode                                     : Joint stereo
Mode extension                           : MS Stereo
Codec ID                                 : 55
Codec ID/Hint                            : MP3
Duration                                 : 55mn 42s
Bit rate mode                            : Constant
Bit rate                                 : 128 Kbps
Channel(s)                               : 2 channels
Sampling rate                            : 48.0 KHz
Compression mode                         : Lossy
Stream size                              : 51.0 MiB (8%)
Alignment                                : Aligned on interleaves
Title                                    : English
Writing library                          : LAME3.90.3



Скачать Острые.козырьки.Peaky.Blinders.(Сезон.03).[2016.драма.криминал.HDTVRip].[MVO].(AlexFilm).torrent без регистрации
Золото ЗОЛОТАЯ РАЗДАЧА! СКАЧАННОЕ НЕ ЗАСЧИТЫВАЕТСЯ! Золото
Дата: Зарегистрирован   [ Тип: внутренний ] Как тут cкачать?
MAGNET ссылка
MAGNET ссылка


Скачать .torrent

21 KB

Статус: проверено DHT
Скачан: торрент - 160 раз, раздача полностью - 55 раз
Размер: 4 GB
Оценка:  5 (Голосов: 2)
Поблагодарили: 4
Поделиться ссылкой на эту раздачу с друзьями:
В контактеFacebookОдноклассникиTwitterLivejournalМой МирLiveinternet
 

 

leon030982

[] 

Торент обновлен! Любительский перевод заменен на профессиональный ab
 

leon030982

[] 

Цитата:

Добавлена 4-я серия!
 

leon030982

[] 

ab
 
Показать сообщения:    


Вы не можете начинать темы
Вы не можете отвечать на сообщения
Вы не можете редактировать свои сообщения
Вы не можете удалять свои сообщения
Вы не можете голосовать в опросах
Вы не можете прикреплять файлы к сообщениям
Вы можете скачивать файлы