Loading...
Error

Скачать Чужая нация / Alien Nation (Грэм Бейкер) [1988, фантастика, триллер, драма, криминал, BDRip-AVC] [MVO]+[AVO]x2+[Оригинал]+[Sub] торрент без регистрации

 
Статистика раздачи
Размер:  2,65 GB   |    Скачан:  45 раз
Сидов:  1  [  0 KB/s  ]  
 
Автор Сообщение

Marsianka

[] 

Производство: США, American Entertainment Partners II L.P., Twentieth Century Fox Film Corporation
Жанр: фантастика, триллер, драма, криминал

Режиссер: Грэм Бейкер
Актеры: Джеймс Каан, Мэнди Пэтинкин, Теренс Стэмп, Кевин Мейджор Ховард, Лесли Бевис, Питер Джейсон, Конрад Данн, Джефф Кобер, Роджер Аарон Браун, Тони Саймотс

Описание:
В пустыне Мохаве потерпел крушение огромный инопланетный космический корабль, перевозивший 250 тысяч рабов из разных концов Галактики. Пришельцы стали жить среди людей, многие из которых были очень враждебно настроены по отношению к «отбросам Вселенной». Среди них — детектив Мэттью Сайкс, напарник которого погиб в перестрелке с бандой пришельцев. Перебирая бумаги погибшего друга, Мэттью делает открытие: его убили за то, что он пытался выяснить, почему пришельцы так слепо повиновались своим бывшим хозяевам. Когда в городе начинают находить трупы пришельцев, умерших от странной болезни, а на страницы газет попадает снимок чудовищной насекомообразной твари, Мэттью и его новый напарник, пришелец Джордж, вынуждены работать рука об руку, чтобы раскрыть тайну этих событий…



Релиз от: K.E.N (NNM-CLUB)
Продолжительность: 01:29:56
Качество видео: BDRip-AVC
Перевод: Профессиональный многоголосый, авторский
Субтитры: Отступники

Видео: AVC, 1024x432 (2.35:1), 23.976 fps, 3 073 Kbps (0.290 bit/pixel)
Аудио #1: AC3, 6 ch, 48 kHz, 384 kbps - Русский (MVO, R5)
Аудио #2: AC3, 2 ch, 48 kHz, 192 kbps - Русский (AVO, А.Гаврилов)
Аудио #3: AC3, 2 ch, 48 kHz, 192 kbps - Русский (AVO, В.Дохалов)
Аудио #4: AC3, 6 ch, 48 kHz, 384 kbps - оригинал (английский)
Формат : Matroska
Версия формата : Version 2
Размер файла : 2,65 Гбайт
Продолжительность : 1 ч. 29 м.
Общий поток : 4226 Кбит/сек
Дата кодирования : UTC 2016-05-06 12:26:58
Программа кодирования : mkvmerge v5.3.0 ('I could have danced') built on Feb 9 2012 10:38:07
Библиотека кодирования : libebml v1.2.3 + libmatroska v1.3.0
Attachment : Yes

Видео
Идентификатор : 1
Формат : AVC
Формат/Информация : Advanced Video Codec
Профиль формата : High@L4.1
Параметр CABAC формата : Да
Параметр ReFrames формата : 10 кадров
Идентификатор кодека : V_MPEG4/ISO/AVC
Продолжительность : 1 ч. 29 м.
Битрейт : 3073 Кбит/сек
Ширина : 1024 пикселя
Высота : 432 пикселя
Соотношение сторон : 2,40:1
Режим частоты кадров : Постоянный
Частота кадров : 23,976 кадра/сек
Цветовое пространство : YUV
Субдискретизация насыщенности : 4:2:0
Битовая глубина : 8 бит
Тип развёртки : Прогрессивная
Бит/(Пиксели*Кадры) : 0.290
Размер потока : 1,88 Гбайт (71%)
Библиотека кодирования : x264 core 146 r2538 121396c
Настройки программы : cabac=1 / ref=10 / deblock=1:-3:-3 / analyse=0x3:0x133 / me=umh / subme=11 / psy=1 / psy_rd=1.00:0.10 / mixed_ref=1 / me_range=32 / chroma_me=1 / trellis=2 / 8x8dct=1 / cqm=0 / deadzone=21,11 / fast_pskip=0 / chroma_qp_offset=-3 / threads=12 / lookahead_threads=2 / sliced_threads=0 / nr=0 / decimate=0 / interlaced=0 / bluray_compat=0 / constrained_intra=0 / bframes=8 / b_pyramid=2 / b_adapt=2 / b_bias=0 / direct=3 / weightb=1 / open_gop=0 / weightp=2 / keyint=240 / keyint_min=23 / scenecut=40 / intra_refresh=0 / rc=2pass / mbtree=0 / bitrate=3073 / ratetol=1.0 / qcomp=0.60 / qpmin=0 / qpmax=69 / qpstep=4 / cplxblur=20.0 / qblur=0.5 / ip_ratio=1.40 / pb_ratio=1.30 / aq=1:0.70
Default : Да
Forced : Нет

Аудио #1
Идентификатор : 2
Формат : AC-3
Формат/Информация : Audio Coding 3
Расширение режима : CM (complete main)
Параметр Endianness формата : Big
Идентификатор кодека : A_AC3
Продолжительность : 1 ч. 29 м.
Вид битрейта : Постоянный
Битрейт : 384 Кбит/сек
Каналы : 6 каналов
Расположение каналов : Front: L C R, Side: L R, LFE
Частота : 48,0 КГц
Битовая глубина : 16 бит
Метод сжатия : С потерями
Размер потока : 247 Мбайт (9%)
Заголовок : Многоголосый
Язык : Russian
Default : Да
Forced : Да

Аудио #2
Идентификатор : 3
Формат : AC-3
Формат/Информация : Audio Coding 3
Расширение режима : CM (complete main)
Параметр Endianness формата : Big
Идентификатор кодека : A_AC3
Продолжительность : 1 ч. 29 м.
Вид битрейта : Постоянный
Битрейт : 192 Кбит/сек
Каналы : 2 канала
Расположение каналов : Front: L R
Частота : 48,0 КГц
Битовая глубина : 16 бит
Метод сжатия : С потерями
Размер потока : 124 Мбайт (5%)
Заголовок : Авторский А.Гаврилов
Язык : Russian
Default : Нет
Forced : Нет

Аудио #3
Идентификатор : 4
Формат : AC-3
Формат/Информация : Audio Coding 3
Расширение режима : CM (complete main)
Параметр Endianness формата : Big
Идентификатор кодека : A_AC3
Продолжительность : 1 ч. 29 м.
Вид битрейта : Постоянный
Битрейт : 192 Кбит/сек
Каналы : 2 канала
Расположение каналов : Front: L R
Частота : 48,0 КГц
Битовая глубина : 16 бит
Метод сжатия : С потерями
Размер потока : 124 Мбайт (5%)
Заголовок : Авторский В.Дохалов
Язык : Russian
Default : Нет
Forced : Нет

Аудио #4
Идентификатор : 5
Формат : AC-3
Формат/Информация : Audio Coding 3
Расширение режима : CM (complete main)
Параметр Endianness формата : Big
Идентификатор кодека : A_AC3
Продолжительность : 1 ч. 29 м.
Вид битрейта : Постоянный
Битрейт : 384 Кбит/сек
Каналы : 6 каналов
Расположение каналов : Front: L C R, Side: L R, LFE
Частота : 48,0 КГц
Битовая глубина : 16 бит
Метод сжатия : С потерями
Размер потока : 247 Мбайт (9%)
Язык : English
Default : Нет
Forced : Нет

Меню
00:00:00.000 : :Chapter 01
00:00:10.384 : :Chapter 02
00:00:15.557 : :Chapter 03
00:04:42.157 : :Chapter 04
00:13:13.251 : :Chapter 05
00:20:10.126 : :Chapter 06
00:29:30.518 : :Chapter 07
00:41:53.969 : :Chapter 08
00:51:31.046 : :Chapter 09
00:59:37.157 : :Chapter 10
01:08:17.135 : :Chapter 11
01:26:23.136 : :Chapter 12



Скачать Чужая.нация.Alien.Nation.(Грэм.Бейкер).[1988.фантастика.триллер.драма.криминал.BDRip-AVC].[MVO]+[AVO]x2+[Оригинал]+[Sub].torrent без регистрации
Золото ЗОЛОТАЯ РАЗДАЧА! СКАЧАННОЕ НЕ ЗАСЧИТЫВАЕТСЯ! Золото
Дата: Зарегистрирован   [ Тип: внутренний ] Как тут cкачать?
MAGNET ссылка
MAGNET ссылка


Скачать .torrent

14 KB

Статус: проверено DHT
Скачан: торрент - 45 раз, раздача полностью - 5 раз
Размер: 2,65 GB
Оценка:  - (Голосов: 0)
Поблагодарили: 1
Поделиться ссылкой на эту раздачу с друзьями:
В контактеFacebookОдноклассникиTwitterLivejournalМой МирLiveinternet
 

 
Показать сообщения:    


Вы не можете начинать темы
Вы не можете отвечать на сообщения
Вы не можете редактировать свои сообщения
Вы не можете удалять свои сообщения
Вы не можете голосовать в опросах
Вы не можете прикреплять файлы к сообщениям
Вы можете скачивать файлы