Loading...
Error

Скачать Вторые. Отряд Кочубея (01-08 из 08) (Александр Даруга) [2009, драма, военный, DVDRip] торрент без регистрации

 
Статистика раздачи
Размер:  4,37 GB   |    Скачан:  82 раза
Сидов:  18  [  0 KB/s  ]   Личеров:  5  [  0 KB/s  ]  
 
Автор Сообщение

МихаНЕзатор

[] 

Год выпуска: 2009
Страна: Россия
Студия: "Телеостров"
Жанр: драма, военный
Продолжительность: 8 серий ~ по 44-45 мин.
Режиссер: Александр Даруга

В ролях: Владимир Стеклов, Игорь Лагутин, Анатолий Пашинин, Александр Сирин, Алексей Воробьёв, Нина Гусева, Владимир Зайцев, Александр Пашутин, Сергей Греков, Михаил Левченко, Алексей Даруга, Максим Литовченко, Максим Лагашкин, Александр Робак, Сергей Чирков, Алексей Маслов, Дмитрий Муляр, Сергей Удовик, Кирилл Гребенщиков, Максим Дрозд, Ольга Стрелецкая, Александр Баширов, Елена Казаринова...
Полный список актёров

Описание: Август 1941 года. Немецкие войска в трёхстах километрах от Москвы. На одном из маршрутов следования первых лиц государства сотрудники Четвёртого управления НКВД обезвреживают группу немецких диверсантов, целью которой являлось физическое устранение Сталина. В момент задержания группы, диверсанты применяют неизвестное оружие «панцеркнакке», по силе действия схожее с реактивным снарядом. При задержании одному из диверсантов удается уйти, двое других – убиты, стрелявшего удалось задержать, но оружие взорвалось в момент выстрела. Как немецким диверсантам удалось так близко подойти к секретной информации о маршрутах передвижения первых лиц государства? Где находится школа подготовки диверсионной группы? Для этой цели формируется две группы. Первая должна тайно пройти по тылам противника и выйти в указанный, взятым в плен диверсантом, адрес. О существовании этой группы знают только двое - Мирзоев и Алёхин. А задание Второй группы – двигаясь по тылам противника, действовать так, чтобы отвлекать внимание немецкой разведки от группы Первых.



Исходник: DVD9 R5
Качество видео: DVDRip
Формат видео: AVI

Видео: 704х400 (16:9), 25 fps, XviD ~ 1527 kbps avg, 0.217 bit/pixel
Аудио: 48 kHz, Dolby Digital AC3 2.0, 192 kbps

АНОНСЫ ПОПУЛЯРНЫХ РАЗДАЧ

Общее
Полное имя : Vtorye.Otryad.Kochubeya.2009.DVDRip_[New-team]_by_AVP_Studio.avi
Формат : AVI
Формат/Информация : Audio Video Interleave
Размер файла : 551 Мбайт
Продолжительность : 44 м.
Общий поток : 1728 Кбит/сек
Программа кодирования : VirtualDubMod 1.5.10.3 | www.virtualdub-fr.org || (build 2550/release)
Библиотека кодирования : VirtualDubMod build 2550/release

Видео
Идентификатор : 0
Формат : MPEG-4 Visual
Профиль формата : Advanced Simple@L5
Параметр BVOP формата : 1
Параметр QPel формата : Нет
Параметр GMC формата : Без точки перехода
Параметр матрицы формата : Выборочная
Идентификатор кодека : XVID
Идентификатор кодека/Подсказка : XviD
Продолжительность : 44 м.
Битрейт : 1527 Кбит/сек
Ширина : 704 пикселя
Высота : 400 пикселей
Соотношение сторон : 16:9
Частота кадров : 25,000 кадров/сек
Цветовое пространство : YUV
Субдискретизация насыщенности : 4:2:0
Битовая глубина : 8 бит
Тип развёртки : Прогрессивная
Метод сжатия : С потерями
Бит/(Пиксели*Кадры) : 0.217
Размер потока : 486 Мбайт (88%)
Библиотека кодирования : XviD 1.2.1 (UTC 2008-12-04)

Аудио
Идентификатор : 1
Формат : AC-3
Формат/Информация : Audio Coding 3
Расширение режима : CM (complete main)
Параметр Endianness формата : Big
Идентификатор кодека : 2000
Продолжительность : 44 м.
Вид битрейта : Постоянный
Битрейт : 192 Кбит/сек
Каналы : 2 канала
Расположение каналов : Front: L R
Частота : 48,0 КГц
Частота кадров : 31,250 кадров/сек (1536 spf)
Метод сжатия : С потерями
Размер потока : 61,2 Мбайт (11%)
Выравнивание : Разделение по промежуткам
Продолжительность промежутка : 40 мс. (1,00 видеокадр)
Время предзагрузки промежутка : 500 мс



Скачать Вторые.Отряд.Кочубея.(01-08.из.08).(Александр.Даруга).[2009.драма.военный.DVDRip].torrent без регистрации
Золото ЗОЛОТАЯ РАЗДАЧА! СКАЧАННОЕ НЕ ЗАСЧИТЫВАЕТСЯ! Золото
Дата: Зарегистрирован   [ Тип: внешний ] Как тут cкачать?
MAGNET ссылка
MAGNET ссылка


Скачать .torrent

12 KB

Статус: проверено DHT
Скачан: торрент - 82 раз, раздача полностью - 86 раз
Размер: 4,37 GB
Оценка:  - (Голосов: 0)
Поблагодарили: 1
Поделиться ссылкой на эту раздачу с друзьями:
В контактеFacebookОдноклассникиTwitterLivejournalМой МирLiveinternet
 

 
Показать сообщения:    


Вы не можете начинать темы
Вы не можете отвечать на сообщения
Вы не можете редактировать свои сообщения
Вы не можете удалять свои сообщения
Вы не можете голосовать в опросах
Вы не можете прикреплять файлы к сообщениям
Вы можете скачивать файлы