Loading...
Error

Скачать Золото Ули / Ulee's Gold (Виктор Нуньес) [1996, драма, HDRip] [DVO] торрент без регистрации

 
Статистика раздачи
Размер:  1,45 GB   |    Скачан:  32 раза
Сидов:  1  [  0 KB/s  ]  
 
Автор Сообщение

Marsianka

[] 

Информация о фильме
Название: Золото Ули
Оригинальное название: Ulee's Gold
Год выхода: 1996
Жанр: драма
Режиссер:
    Виктор Нуньес

В ролях: Питер Фонда, Патриция Ричардсон, Кристин Данфорд, Том Вуд, Джессика Бил, Ванесса Зима, Стивен Флинн, Дьюи Уэбер, Дж. Кеннет Кэмпбелл, Traber Burns

О фильме:
Однажды в доме бывшего вьетнамского ветерана Ули Джексона раздается звонок из тюрьмы. Его единственный сын, отбывающий срок за вооруженное ограбление, просит о помощи: его жена похищена подонками, с которыми он совершал преступление, и ее жизнь в опасности. И ули решает рискнуть своей жизнью, чтобы спасти близких ему людей.



Страна: США
Студия: Nunez-Gowan, Clinica Estetico Ltd.
Продолжительность: 01:53:16
Перевод: Профессиональный (двухголосый, закадровый) | НТВ+

Файл
Формат: AVI
Качество: HDRip
Видео: XviD, 720x432, 23.976 fps, 1636 kbps
Звук: AC3, 2 ch, ~192 kbps
General
Complete name : Ulees.Gold.1997.HDRip.1450MB.MegaPeer.avi
Format : AVI
Format/Info : Audio Video Interleave
File size : 1.45 GiB
Duration : 1h 53mn
Overall bit rate : 1 838 Kbps
Writing application : VirtualDubMod 1.5.10.3 | www.virtualdub-fr.org || (build 2550/release)
Writing library : VirtualDubMod build 2550/release

Video
ID : 0
Format : MPEG-4 Visual
Format profile : Advanced Simple@L5
Format settings, BVOP : 1
Format settings, QPel : No
Format settings, GMC : No warppoints
Format settings, Matrix : Custom
Codec ID : XVID
Codec ID/Hint : XviD
Duration : 1h 53mn
Bit rate : 1 637 Kbps
Width : 720 pixels
Height : 432 pixels
Display aspect ratio : 5:3
Frame rate : 23.976 (23976/1000) fps
Color space : YUV
Chroma subsampling : 4:2:0
Bit depth : 8 bits
Scan type : Progressive
Compression mode : Lossy
Bits/(Pixel*Frame) : 0.219
Stream size : 1.29 GiB (89%)
Writing library : XviD 73

Audio
ID : 1
Format : AC-3
Format/Info : Audio Coding 3
Mode extension : CM (complete main)
Format settings, Endianness : Big
Codec ID : 2000
Duration : 1h 53mn
Bit rate mode : Constant
Bit rate : 192 Kbps
Channel(s) : 2 channels
Channel positions : Front: L R
Sampling rate : 48.0 KHz
Frame rate : 31.250 fps (1536 spf)
Compression mode : Lossy
Stream size : 156 MiB (10%)
Alignment : Split accross interleaves
Interleave, duration : 42 ms (1.00 video frame)
Interleave, preload duratio : 500 ms



Скачать Золото.Ули.Ulee's.Gold.(Виктор.Нуньес).[1996.драма.HDRip].[DVO].torrent без регистрации
Золото ЗОЛОТАЯ РАЗДАЧА! СКАЧАННОЕ НЕ ЗАСЧИТЫВАЕТСЯ! Золото
Дата: Зарегистрирован   [ Тип: внутренний ] Как тут cкачать?
MAGNET ссылка
MAGNET ссылка


Скачать .torrent

15 KB

Статус: проверено DHT
Скачан: торрент - 32 раз, раздача полностью - 1 раз
Размер: 1,45 GB
Оценка:  - (Голосов: 0)
Поблагодарили: 0
Поделиться ссылкой на эту раздачу с друзьями:
В контактеFacebookОдноклассникиTwitterLivejournalМой МирLiveinternet
 

 
Показать сообщения:    


Вы не можете начинать темы
Вы не можете отвечать на сообщения
Вы не можете редактировать свои сообщения
Вы не можете удалять свои сообщения
Вы не можете голосовать в опросах
Вы не можете прикреплять файлы к сообщениям
Вы можете скачивать файлы