Loading...
Error

Скачать Стриптиз от зомби / Зомби-стриптизерши / Zombie Strippers! (Джей Ли) [2008, ужасы, комедия, BDRip-AVC] [Unrated version] [MVO]+[Оригинал]+[Sub] торрент без регистрации

 
Статистика раздачи
Размер:  2,18 GB   |    Скачан:  41 раз
Сидов:  1  [  0 KB/s  ]  
 
Автор Сообщение

Marsianka

[] 

Зомби-стриптизерши / Zombie Strippers! / Unrated

Страна: США
Жанр: ужасы, комедия
Год выпуска: 2008
Продолжительность: 01:34:21

Перевод: Профессиональный (многоголосый закадровый)
Cубтитры: английские
Оригинальная аудиодорожка: английский

Режиссер: Джей Ли / Jay Lee

В ролях: Дженна Джеймесон, Роберт Инглунд, Рокси Сэйнт, Пенни Дрэйк, Уитни Андерсон, Дженнифер Холланд, Шэмрон Мур

Описание: В ближайшем будущем Джорджа Буша переизбирают на четвертый срок. В Ираке продолжаются военные действия, а в армии США не хватает солдат. Военные ищут решение этого вопроса и проводят испытания вируса, способного оживлять мертвых, чтобы сделать из них идеальных солдат, которые продолжают бой до тех пор, пока им не отстрелят голову. К сожалению, эксперимент выходит из-под контроля, и чтобы уничтожить множащуюся армию зомби, на помощь приходит взвод пехотинцев. Одного из пехотинцев Берда Флю кусает недобитый зомби. Пехотинцу удается прорваться сквозь зону карантина, и он случайно попадает в стрип-бар «Rhino»s»…



Качество видео: BDRip-AVC (BDRemux)
Формат видео: MKV

Видео: AVC, 1080x460 (2.35:1), 23.976 fps, 2 535 Kbps (0.213 bit/pixel)
Аудио #1: AC-3, 48.0 KHz, 6 ch, 384 Kbps, CBR (Russian)
Аудио #2: AC-3, 48.0 KHz, 6 ch, 384 Kbps, CBR (English)
Формат субтитров: softsub (SRT)
[Information] [08.05.2016 2:53:23] Standard error stream
-[Information] [08.05.2016 2:53:33] raw [info]: 1080x460p 1:1 @ 24000/1001 fps (cfr)
-[Information] [08.05.2016 2:53:33] x264 [info]: using SAR=1/1
-[Information] [08.05.2016 2:53:33] x264 [info]: using cpu capabilities: MMX2 SSE2Fast SSSE3 SSE4.2 AVX
-[Information] [08.05.2016 2:53:33] x264 [info]: profile High, level 4.1
-[Information] [08.05.2016 11:23:35] x264 [info]: frame I:1346 Avg QP:17.27 size: 78210
-[Information] [08.05.2016 11:23:35] x264 [info]: frame P:29374 Avg QP:19.88 size: 25726
-[Information] [08.05.2016 11:23:35] x264 [info]: frame B:105024 Avg QP:21.49 size: 8860
-[Information] [08.05.2016 11:23:35] x264 [info]: consecutive B-frames: 2.7% 2.5% 7.4% 19.1% 14.4% 44.9% 4.4% 0.7% 1.2% 0.8% 1.9%
-[Information] [08.05.2016 11:23:35] x264 [info]: mb I I16..4: 6.9% 77.7% 15.4%
-[Information] [08.05.2016 11:23:35] x264 [info]: mb P I16..4: 1.2% 12.7% 1.6% P16..4: 37.2% 21.0% 16.3% 0.4% 0.1% skip: 9.4%
-[Information] [08.05.2016 11:23:35] x264 [info]: mb B I16..4: 0.1% 0.8% 0.2% B16..8: 38.9% 11.8% 3.9% direct: 5.8% skip:38.5% L0:47.4% L1:45.2% BI: 7.3%
-[Information] [08.05.2016 11:23:35] x264 [info]: 8x8 transform intra:80.3% inter:65.5%
-[Information] [08.05.2016 11:23:35] x264 [info]: direct mvs spatial:98.5% temporal:1.5%
-[Information] [08.05.2016 11:23:35] x264 [info]: coded y,uvDC,uvAC intra: 87.4% 88.3% 72.9% inter: 24.3% 27.7% 11.5%
-[Information] [08.05.2016 11:23:35] x264 [info]: i16 v,h,dc,p: 44% 19% 9% 28%
-[Information] [08.05.2016 11:23:35] x264 [info]: i8 v,h,dc,ddl,ddr,vr,hd,vl,hu: 9% 7% 7% 11% 15% 15% 13% 12% 11%
-[Information] [08.05.2016 11:23:35] x264 [info]: i4 v,h,dc,ddl,ddr,vr,hd,vl,hu: 12% 8% 3% 10% 15% 16% 13% 12% 11%
-[Information] [08.05.2016 11:23:35] x264 [info]: i8c dc,h,v,p: 44% 17% 19% 19%
-[Information] [08.05.2016 11:23:35] x264 [info]: Weighted P-Frames: Y:2.7% UV:1.4%
-[Information] [08.05.2016 11:23:35] x264 [info]: ref P L0: 41.3% 9.6% 17.8% 6.4% 6.3% 3.8% 3.8% 1.8% 1.8% 1.3% 1.4% 1.0% 1.1% 0.9% 1.0% 0.6%
-[Information] [08.05.2016 11:23:35] x264 [info]: ref B L0: 60.6% 13.8% 7.8% 4.3% 3.1% 2.7% 2.0% 1.2% 1.0% 0.9% 0.7% 0.7% 0.6% 0.4% 0.2%
-[Information] [08.05.2016 11:23:35] x264 [info]: ref B L1: 90.5% 9.5%
-[Information] [08.05.2016 11:23:35] x264 [info]: kb/s:2531.37
-[Information] [08.05.2016 11:23:35] encoded 135744 frames, 4.44 fps, 2531.37 kb/s

Общее
Уникальный идентификатор : 209797814979619737740559438878790351181 (0x9DD596E3CFB89EB880D6A1310687794D)
Формат : Matroska
Версия формата : Version 4 / Version 2
Размер файла : 2,18 Гбайт
Продолжительность : 1 ч. 34 м.
Общий поток : 3301 Кбит/сек
Дата кодирования : UTC 2016-05-09 09:33:44
Программа кодирования : mkvmerge v9.1.0 ('Little Earthquakes') 64bit
Библиотека кодирования : libebml v1.3.3 + libmatroska v1.4.4

Видео
Идентификатор : 1
Формат : AVC
Формат/Информация : Advanced Video Codec
Профиль формата : High@L4.1
Параметр CABAC формата : Да
Параметр ReFrames формата : 16 кадров
Идентификатор кодека : V_MPEG4/ISO/AVC
Продолжительность : 1 ч. 34 м.
Битрейт : 2535 Кбит/сек
Ширина : 1080 пикселей
Высота : 460 пикселей
Соотношение сторон : 2,35:1
Режим частоты кадров : Постоянный
Частота кадров : 23,976 (24000/1001) кадра/сек
Цветовое пространство : YUV
Субдискретизация насыщенности : 4:2:0
Битовая глубина : 8 бит
Тип развёртки : Прогрессивная
Бит/(Пиксели*Кадры) : 0.213
Размер потока : 1,67 Гбайт (77%)
Библиотека кодирования : x264 core 148 r2638 7599210
Настройки программы : cabac=1 / ref=16 / deblock=1:0:0 / analyse=0x3:0x133 / me=umh / subme=10 / psy=1 / psy_rd=1.00:0.00 / mixed_ref=1 / me_range=32 / chroma_me=1 / trellis=2 / 8x8dct=1 / cqm=0 / deadzone=21,11 / fast_pskip=1 / chroma_qp_offset=-2 / threads=6 / lookahead_threads=1 / sliced_threads=0 / nr=0 / decimate=1 / interlaced=0 / bluray_compat=0 / constrained_intra=0 / bframes=10 / b_pyramid=2 / b_adapt=2 / b_bias=0 / direct=3 / weightb=1 / open_gop=0 / weightp=2 / keyint=240 / keyint_min=23 / scenecut=40 / intra_refresh=0 / rc_lookahead=60 / rc=2pass / mbtree=0 / bitrate=2535 / ratetol=1.0 / qcomp=0.60 / qpmin=0 / qpmax=69 / qpstep=4 / cplxblur=20.0 / qblur=0.5 / vbv_maxrate=62500 / vbv_bufsize=78125 / nal_hrd=none / filler=0 / ip_ratio=1.40 / pb_ratio=1.30 / aq=1:1.00
Default : Да
Forced : Нет

Аудио #1
Идентификатор : 2
Формат : AC-3
Формат/Информация : Audio Coding 3
Расширение режима : CM (complete main)
Параметр Endianness формата : Big
Идентификатор кодека : A_AC3
Продолжительность : 1 ч. 34 м.
Вид битрейта : Постоянный
Битрейт : 384 Кбит/сек
Каналы : 6 каналов
Расположение каналов : Front: L C R, Side: L R, LFE
Частота : 48,0 КГц
Частота кадров : 31,250 кадров/сек (1536 spf)
Метод сжатия : С потерями
Размер потока : 259 Мбайт (12%)
Заголовок : Russian
Язык : Russian
Default : Да
Forced : Нет

Аудио #2
Идентификатор : 3
Формат : AC-3
Формат/Информация : Audio Coding 3
Расширение режима : CM (complete main)
Параметр Endianness формата : Big
Идентификатор кодека : A_AC3
Продолжительность : 1 ч. 34 м.
Вид битрейта : Постоянный
Битрейт : 384 Кбит/сек
Каналы : 6 каналов
Расположение каналов : Front: L C R, Side: L R, LFE
Частота : 48,0 КГц
Частота кадров : 31,250 кадров/сек (1536 spf)
Метод сжатия : С потерями
Размер потока : 259 Мбайт (12%)
Заголовок : English
Язык : English
Default : Нет
Forced : Нет

Текст
Идентификатор : 4
Формат : UTF-8
Идентификатор кодека : S_TEXT/UTF8
Идентификатор кодека/Информация : UTF-8 Plain Text
Продолжительность : 1 ч. 29 м.
Битрейт : 39 бит/сек
Count of elements : 862
Размер потока : 26,2 Кбайт (0%)
Заголовок : English
Язык : English
Default : Да
Forced : Нет



Скачать Стриптиз.от.зомби.Зомби-стриптизерши.Zombie.Strippers!.(Джей.Ли).[2008.ужасы.комедия.BDRip-AVC].[Unrated.version].[MVO]+[Оригинал]+[Sub].torrent без регистрации
Золото ЗОЛОТАЯ РАЗДАЧА! СКАЧАННОЕ НЕ ЗАСЧИТЫВАЕТСЯ! Золото
Дата: Зарегистрирован   [ Тип: внутренний ] Как тут cкачать?
MAGNET ссылка
MAGNET ссылка


Скачать .torrent

12 KB

Статус: проверено DHT
Скачан: торрент - 41 раз, раздача полностью - 62 раз
Размер: 2,18 GB
Оценка:  - (Голосов: 0)
Поблагодарили: 1
Поделиться ссылкой на эту раздачу с друзьями:
В контактеFacebookОдноклассникиTwitterLivejournalМой МирLiveinternet
 

 
Показать сообщения:    


Вы не можете начинать темы
Вы не можете отвечать на сообщения
Вы не можете редактировать свои сообщения
Вы не можете удалять свои сообщения
Вы не можете голосовать в опросах
Вы не можете прикреплять файлы к сообщениям
Вы можете скачивать файлы