Loading...
Error

Скачать Мольер / Molière (Лоран Тирар) [2007, история, комедия, DVDRip-AVC] [MVO]+[Dub]+[Sub] торрент без регистрации

 
Статистика раздачи
Размер:  2,76 GB   |    Скачан:  40 раз
Сидов:  1  [  0 KB/s  ]  
 
Автор Сообщение

Marsianka

[] 

Информация о фильме
Название: Мольер
Оригинальное название: Molière
Год выхода: 2007
Жанр: история, комедия
Режиссер: Лоран Тирар
В ролях: Ромэн Дюри, Фабрис Лукини, Лаура Моранте, Эдуар Бае, Людивин Санье, Фанни Валетт, Мелани Дос Сантос, Гонзагю Регулляр, Джилиан Петровски, Софи-Шарлотта Хюссон

О фильме:
Фильм о великом французе – это полная изящного, французского юмора комедия положений с прологом и эпилогом, с музами и любовницами, королями и нищими, пылом любви и жаром творчества. XVI век. После долгих скитаний в Париж возвращается Мольер, его ждет работа в Королевском театре. Некто месье Жордэн оплачивает долги знаменитого автора, рассчитывая на то, что Мольер поставит в театре его одноактную пьесу весьма пикантного содержания. В жизни великого комедианта завязывается еще одна остроумная, но далеко не единственная интрига. Своим домочадцам Жордэн представляет Мольера ревностным католиком по имени Тартюф…


Страна: Франция
Студия: Fidélité Productions, France 2 Cinéma, France 3 Cinéma
Продолжительность: 01:55:31.920
Перевод: Профессиональный (многоголосый, закадровый)
Дубляж R5

Файл
Кодек: h.264
Качество: DVDRip-AVC Исходник R5 DVD9
Видео: 712x424 (2.35:1) @ 1004x424, 25.000 fps, AVC, ~2075 Kbps, 0.275 bits/pixel

Русский, 48.0 KHz, AC3, 6 ch, 448 Kbps MVO
Русский, 48.0 KHz, AC3, 6 ch, 448 Kbps DUB
Французский, 48.0 KHz, AC3, 6 ch, 448 Kbps
Субтитры: Русские, SRT(UTF-8)

Видео использовано с R5,как лучшее из возможных (четче и светлее, чем, например, R1 от Sony).
Аудио На исходном диске был только дубляж в DD и DTS, оригинальной дорожки не было. 1) Французская дорожка получена из R1 издания от Sony (взяты и синхронизированы C,L,R-каналы от R1, LR,SR,LFE от R5);
2)Дорожка с многоголосым переводом получена наложением выделенных голосов переводчиков на центральный канал французского трека, которые получены из фр. и рус. дорожек другого издания.
Русские субтитры на основе R5, немного подкорректированы, синхронизированы по речи.
Общее
Уникальный идентификатор : 207434173002873649284648829172274441955 (0x9C0E5E57D233BDC9AD65E7A5FCE42EE3)
Полное имя : E:FILMSMolyer.2007.DVDRip-AVC.mkv
Формат : Matroska
Версия формата : Version 4 / Version 2
Размер файла : 2,76 Гбайт
Продолжительность : 1 ч. 55 м.
Общий поток : 3421 Кбит/сек
Дата кодирования : UTC 2016-05-09 17:26:48
Программа кодирования : mkvmerge v9.1.0 ('Little Earthquakes') 64bit
Библиотека кодирования : libebml v1.3.3 + libmatroska v1.4.4

Видео
Идентификатор : 1
Формат : AVC
Формат/Информация : Advanced Video Codec
Профиль формата : High@L4.1
Параметр CABAC формата : Да
Параметр ReFrames формата : 11 кадров
Идентификатор кодека : V_MPEG4/ISO/AVC
Продолжительность : 1 ч. 55 м.
Битрейт : 2075 Кбит/сек
Ширина : 712 пикселей
Высота : 424 пикселя
Соотношение сторон : 2,35:1
Режим частоты кадров : Постоянный
Частота кадров : 25,000 кадров/сек
Цветовое пространство : YUV
Субдискретизация насыщенности : 4:2:0
Битовая глубина : 8 бит
Тип развёртки : Прогрессивная
Бит/(Пиксели*Кадры) : 0.275
Размер потока : 1,67 Гбайт (61%)
Библиотека кодирования : x264 core 148 r2638 7599210
Настройки программы : cabac=1 / ref=11 / deblock=1:0:0 / analyse=0x3:0x133 / me=umh / subme=11 / psy=1 / psy_rd=1.10:0.15 / mixed_ref=1 / me_range=48 / chroma_me=1 / trellis=2 / 8x8dct=1 / cqm=0 / deadzone=21,11 / fast_pskip=0 / chroma_qp_offset=-3 / threads=8 / lookahead_threads=2 / sliced_threads=0 / nr=0 / decimate=0 / interlaced=0 / bluray_compat=0 / constrained_intra=0 / bframes=10 / b_pyramid=2 / b_adapt=2 / b_bias=0 / direct=3 / weightb=1 / open_gop=0 / weightp=2 / keyint=250 / keyint_min=25 / scenecut=40 / intra_refresh=0 / rc_lookahead=60 / rc=2pass / mbtree=0 / bitrate=2075 / ratetol=1.0 / qcomp=0.60 / qpmin=0 / qpmax=69 / qpstep=4 / cplxblur=20.0 / qblur=0.5 / vbv_maxrate=40000 / vbv_bufsize=50000 / nal_hrd=none / filler=0 / ip_ratio=1.40 / pb_ratio=1.30 / aq=1:1.00
Default : Нет
Forced : Нет
Цветовой диапазон : Limited
Коэффициенты матрицы : BT.601

Аудио #1
Идентификатор : 2
Формат : AC-3
Формат/Информация : Audio Coding 3
Расширение режима : CM (complete main)
Параметр Endianness формата : Big
Идентификатор кодека : A_AC3
Продолжительность : 1 ч. 55 м.
Вид битрейта : Постоянный
Битрейт : 448 Кбит/сек
Каналы : 6 каналов
Расположение каналов : Front: L C R, Side: L R, LFE
Частота : 48,0 КГц
Частота кадров : 31,250 кадров/сек (1536 spf)
Метод сжатия : С потерями
Размер потока : 370 Мбайт (13%)
Заголовок : MVO
Язык : Russian
Default : Да
Forced : Нет

Аудио #2
Идентификатор : 3
Формат : AC-3
Формат/Информация : Audio Coding 3
Расширение режима : CM (complete main)
Параметр Endianness формата : Big
Идентификатор кодека : A_AC3
Продолжительность : 1 ч. 55 м.
Вид битрейта : Постоянный
Битрейт : 448 Кбит/сек
Каналы : 6 каналов
Расположение каналов : Front: L C R, Side: L R, LFE
Частота : 48,0 КГц
Частота кадров : 31,250 кадров/сек (1536 spf)
Метод сжатия : С потерями
Размер потока : 370 Мбайт (13%)
Заголовок : DUB
Язык : Russian
Default : Нет
Forced : Нет

Аудио #3
Идентификатор : 4
Формат : AC-3
Формат/Информация : Audio Coding 3
Расширение режима : CM (complete main)
Параметр Endianness формата : Big
Идентификатор кодека : A_AC3
Продолжительность : 1 ч. 55 м.
Вид битрейта : Постоянный
Битрейт : 448 Кбит/сек
Каналы : 6 каналов
Расположение каналов : Front: L C R, Side: L R, LFE
Частота : 48,0 КГц
Частота кадров : 31,250 кадров/сек (1536 spf)
Метод сжатия : С потерями
Размер потока : 370 Мбайт (13%)
Язык : French
Default : Нет
Forced : Нет

Текст
Идентификатор : 5
Формат : UTF-8
Идентификатор кодека : S_TEXT/UTF8
Идентификатор кодека/Информация : UTF-8 Plain Text
Продолжительность : 1 ч. 52 м.
Битрейт : 116 бит/сек
Count of elements : 975
Размер потока : 95,6 Кбайт (0%)
Язык : Russian
Default : Нет
Forced : Нет
Релиз от: Temperest



Скачать Мольер.Molière.(Лоран.Тирар).[2007.история.комедия.DVDRip-AVC].[MVO]+[Dub]+[Sub].torrent без регистрации
Золото ЗОЛОТАЯ РАЗДАЧА! СКАЧАННОЕ НЕ ЗАСЧИТЫВАЕТСЯ! Золото
Дата: Зарегистрирован   [ Тип: внутренний ] Как тут cкачать?
MAGNET ссылка
MAGNET ссылка


Скачать .torrent

14 KB

Статус: проверено DHT
Скачан: торрент - 40 раз, раздача полностью - 2 раз
Размер: 2,76 GB
Оценка:  - (Голосов: 0)
Поблагодарили: 1
Поделиться ссылкой на эту раздачу с друзьями:
В контактеFacebookОдноклассникиTwitterLivejournalМой МирLiveinternet
 

 
Показать сообщения:    


Вы не можете начинать темы
Вы не можете отвечать на сообщения
Вы не можете редактировать свои сообщения
Вы не можете удалять свои сообщения
Вы не можете голосовать в опросах
Вы не можете прикреплять файлы к сообщениям
Вы можете скачивать файлы