Loading...
Error

Скачать Партизаны / Partizani (Столе Янкович) [1974, боевик, драма, мелодрама, военный, DVDRip] [VO]+[Sub] торрент без регистрации

 
Статистика раздачи
Размер:  2,01 GB   |    Скачан:  25 раз
Сидов:  1  [  0 KB/s  ]  
 
Автор Сообщение

Marsianka

[] 

Информация о фильме
Название: Партизаны
Оригинальное название: Partizani
Год выхода: 1974
Жанр: боевик, драма, мелодрама, военный
Режиссер: Столе Янкович
В ролях: Род Тейлор, Велимир «Бата» Живоинович, Адам Уэст, Оливера Катарина, Петер Карстен, Драгомир Фелба, Брайони Фаррелл, Ксения Гратсос, Йован-Бурдуш Яницижевич, Питер Карстен, Оливера Вуко, Бранко Плеса, Лео Мартин, Маринко Себез, Янез Врховец, Гизела Вукович, Маринко Себеш, Драгомир Станоевич, Зоран Стоилькович, Сенка Велетанич

О фильме:
1941 год. Оккупированная немцами Югославия. Молодая еврейская девушка во время поисков родственников попадает в облаву, и, как еврейка, депортируется в лагерь. Во время конвоирования в лагерь её узнает молодой офицер, бывший друг детства. Это помогает ей выжить. Партизаны нападают на конвой и освобождают заключенных, но отношения между молодым австрийцем и девушкой не так понимает командир отряда партизан. Постепенно девушка и партизанский командир испытывают симпатию и между ними вспыхивает маленькая искра любви. Офицер, который спасал девушку, отчаянно её ищет и находит, после того как сам попадает в плен к партизанам. Но узнав, что между ними любовь, вынашивает план для мести и становится во главе карательной антипартизанской операции...



Производство: Югославия, США, Лихтенштейн / Avala Film, Film Forty-First - Avala Film Working Organization, Filmska Radna Zajednica (FRZ)
Продолжительность: 01:53:31
Перевод: любительский (одноголосый закадровый) [Dimo]

Файл
Качество: DVDRip
Формат: AVI
Видео: XviD, 704x464 (3:2), 25.000 fps, 2329 kbps, 0.285 bit/pixel
Аудио: русский, AC3 2.0, 48 kHz, 192 kbps
Субтитры: сербские вшитые на немецкую речь
Формат : AVI
Формат/Информация : Audio Video Interleave
Профиль формата : OpenDML
Размер файла : 2,01 Гбайт
Продолжительность : 1 ч. 53 м.
Общий поток : 2534 Кбит/сек
Программа кодирования : VirtualDubMod 1.5.10.3 | www.virtualdub-fr.org || (build 2550/release)
Библиотека кодирования : VirtualDubMod build 2550/release

Видео
Идентификатор : 0
Формат : MPEG-4 Visual
Профиль формата : Advanced Simple@L5
Параметр BVOP формата : 1
Параметр QPel формата : Нет
Параметр GMC формата : Без точки перехода
Параметр матрицы формата : Default (MPEG)
Идентификатор кодека : XVID
Идентификатор кодека/Подсказка : XviD
Продолжительность : 1 ч. 53 м.
Битрейт : 2329 Кбит/сек
Ширина : 704 пикселя
Высота : 464 пикселя
Соотношение сторон : 3:2
Частота кадров : 25,000 кадров/сек
Цветовое пространство : YUV
Субдискретизация насыщенности : 4:2:0
Битовая глубина : 8 бит
Тип развёртки : Прогрессивная
Метод сжатия : С потерями
Бит/(Пиксели*Кадры) : 0.285
Размер потока : 1,85 Гбайт (92%)
Библиотека кодирования : XviD 1.2.1 (UTC 2008-12-04)

Аудио
Идентификатор : 1
Формат : AC-3
Формат/Информация : Audio Coding 3
Расширение режима : CM (complete main)
Параметр Endianness формата : Big
Идентификатор кодека : 2000
Продолжительность : 1 ч. 53 м.
Вид битрейта : Постоянный
Битрейт : 192 Кбит/сек
Каналы : 2 канала
Расположение каналов : Front: L R
Частота : 48,0 КГц
Метод сжатия : С потерями
Размер потока : 156 Мбайт (8%)
Выравнивание : Разделение по промежуткам
Продолжительность промежутка : 40 мс. (1,00 видеокадр)
Время предзагрузки промежутка : 500 мс.
Перевод: gordana75
Озвучивание: Dimo
Рип: Lem
Исходник от alinto



Скачать Партизаны.Partizani.(Столе.Янкович).[1974.боевик.драма.мелодрама.военный.DVDRip].[VO]+[Sub].torrent без регистрации
Золото ЗОЛОТАЯ РАЗДАЧА! СКАЧАННОЕ НЕ ЗАСЧИТЫВАЕТСЯ! Золото
Дата: Зарегистрирован   [ Тип: внутренний ] Как тут cкачать?
MAGNET ссылка
MAGNET ссылка


Скачать .torrent

11 KB

Статус: проверено DHT
Скачан: торрент - 25 раз, раздача полностью - 1 раз
Размер: 2,01 GB
Оценка:  - (Голосов: 0)
Поблагодарили: 0
Поделиться ссылкой на эту раздачу с друзьями:
В контактеFacebookОдноклассникиTwitterLivejournalМой МирLiveinternet
 

 
Показать сообщения:    


Вы не можете начинать темы
Вы не можете отвечать на сообщения
Вы не можете редактировать свои сообщения
Вы не можете удалять свои сообщения
Вы не можете голосовать в опросах
Вы не можете прикреплять файлы к сообщениям
Вы можете скачивать файлы