Loading...
Error

Скачать Токийская кровавая школа / Tokyo Gore School / Gakkô ura saito (Ёхей Фукуда) [2009, ужасы, DVDRip] [VO] торрент без регистрации

 
Статистика раздачи
Размер:  1,46 GB   |    Скачан:  44 раза
Сидов:  1  [  0 KB/s  ]  
 
Автор Сообщение

Marsianka

[] 

Токийская кровавая школа / Tokyo Gore School / Gakkô ura saito

Страна: Япония
Производство: JollyRoger
Год выпуска: 2009
Жанр: ужасы
Продолжительность: 01:44:46

Режиссер: Ёхей Фукуда
Авторы сценария: Ёхей Фукуда, Киёси Ямамото

В ролях: Масато Хуюгадзи, Такафуми Имаи, Кохэй Курода, Сион Матида, Соити Мацуда, Микия, Масанори Мизуно, Нако Мизусава

Описание: У Фудзивары, всё вроде бы нормально в жизни, он не плохо себя чувствует в средней школе, он красивый, хорошо учится и хороший боец. В один прекрасный день, он внезапно подвергается нападению со стороны группы студентов без каких-либо причин. Затем он узнаёт, что есть такая таинственная насильственная игра, которая распространяется через мобильную телефонную сеть. Студентам приходится играть. Ведь если проиграешь, то всем станет известен твой самый потаённый секрет. Фудзивара не может допустить, чтобы его секрет раскрылся и для этого ему нужно победить...



Перевод: Любительский (одноголосый, закадровый) | HaseRiLLoPaW
Субтитры: нет

Качество: DVDRip
Формат: АVI
Видео кодек: XviD
Аудио кодек: МР3 | АС3
Видео: 608x304 (2.000), 25.000 fps, XviD ~1 627 kbps avg, 0.352 bit/pixel
Аудио №1: 48.0 kHz, MPEG Layer 3, 2 ch, ~128.00 kbps avg | RUS
Аудио №2: 48.0 kHz, AC3 Dolby Digital, 2/0 (L,R) ch, ~224 kbps | JAP
Дата премьеры (мир): 25 июля 2009
General
Complete name : Токийская кровавая школа (2009)Tokyo Gore School.avi
Format : AVI
Format/Info : Audio Video Interleave
File size : 1.46 GiB
Duration : 1h 44mn
Overall bit rate : 1 993 Kbps
Writing application : VirtualDubMod 1.5.10.2 (build 2540/release)
Writing library : VirtualDubMod build 2540/release

Video
ID : 0
Format : MPEG-4 Visual
Format profile : Advanced Simple@L5
Format settings, BVOP : 2
Format settings, QPel : No
Format settings, GMC : No warppoints
Format settings, Matrix : Default (MPEG)
Muxing mode : Packed bitstream
Codec ID : XVID
Codec ID/Hint : XviD
Duration : 1h 44mn
Bit rate : 1 627 Kbps
Width : 608 pixels
Height : 304 pixels
Display aspect ratio : 2.000
Frame rate : 25.000 fps
Color space : YUV
Chroma subsampling : 4:2:0
Bit depth : 8 bits
Scan type : Progressive
Compression mode : Lossy
Bits/(Pixel*Frame) : 0.352
Stream size : 1.19 GiB (82%)
Writing library : XviD 1.2.1 (UTC 2008-12-04)

Audio #1
ID : 1
Format : MPEG Audio
Format version : Version 1
Format profile : Layer 3
Mode : Joint stereo
Mode extension : MS Stereo
Codec ID : 55
Codec ID/Hint : MP3
Duration : 1h 44mn
Bit rate mode : Constant
Bit rate : 128 Kbps
Channel(s) : 2 channels
Sampling rate : 48.0 KHz
Compression mode : Lossy
Stream size : 95.9 MiB (6%)
Alignment : Aligned on interleaves
Interleave, duration : 40 ms (1.00 video frame)
Interleave, preload duration : 504 ms

Audio #2
ID : 2
Format : AC-3
Format/Info : Audio Coding 3
Mode extension : CM (complete main)
Codec ID : 2000
Duration : 1h 44mn
Bit rate mode : Constant
Bit rate : 224 Kbps
Channel(s) : 2 channels
Channel positions : Front: L R
Sampling rate : 48.0 KHz
Bit depth : 16 bits
Compression mode : Lossy
Stream size : 168 MiB (11%)
Alignment : Split accross interleaves
Interleave, duration : 40 ms (1.00 video frame)
Interleave, preload duration : 500 ms



Скачать Токийская.кровавая.школа.Tokyo.Gore.School.Gakkô.ura.saito.(Ёхей.Фукуда).[2009.ужасы.DVDRip].[VO].torrent без регистрации
Золото ЗОЛОТАЯ РАЗДАЧА! СКАЧАННОЕ НЕ ЗАСЧИТЫВАЕТСЯ! Золото
Дата: Зарегистрирован   [ Тип: внутренний ] Как тут cкачать?
MAGNET ссылка
MAGNET ссылка


Скачать .torrent

15 KB

Статус: проверено DHT
Скачан: торрент - 44 раз, раздача полностью - 1 раз
Размер: 1,46 GB
Оценка:  - (Голосов: 0)
Поблагодарили: 0
Поделиться ссылкой на эту раздачу с друзьями:
В контактеFacebookОдноклассникиTwitterLivejournalМой МирLiveinternet
 

 
Показать сообщения:    


Вы не можете начинать темы
Вы не можете отвечать на сообщения
Вы не можете редактировать свои сообщения
Вы не можете удалять свои сообщения
Вы не можете голосовать в опросах
Вы не можете прикреплять файлы к сообщениям
Вы можете скачивать файлы