Loading...
Error

Скачать Игра в молчанку / Game of Silence (сезон 01) (Холли Дэйл и лр.) [2016, драма, HDTV] [720p] [DVO (Sunshine Studio)] торрент без регистрации

 
Статистика раздачи
Размер:  10,01 GB   |    Скачан:  34 раза
Сидов:  1  [  0 KB/s  ]  
 
Автор Сообщение

МихаНЕзатор

[] 

Название: Игра в молчанку
Оригинальное название: Game of Silence
Год выхода: 2016
Жанр: драма
Режиссер: Деран Сарафян, Нильс Арден Оплев, Холли Дэйл, Дэйв Родригез

В ролях: Дэвид Лайонс, Никки Томлинсон, Эйлин Грубба, Лоренц Тейт, Клер ван дер Бом, Эшли ЛеКонте Кэмпбелл, Шэрон Гаррисон, Терри Эбни, Дейдри Генри и др.

О сериале: В центре сюжета преуспевающий адвокат из Атланты и его старые приятели. Когда-то герои были лучшими друзьями, но потом произошла страшная непоправимая трагедия. Их пути разошлись, и они постарались забыть о случившемся в далёком детстве и поклялись молчать об этом. Они думали, что тайна, которую они хранили 25 лет, никогда не будет раскрыта, но ошиблись. Призраки прошедших дней неожиданно вновь появляются, и могут разрушить их жизни, и этого допустить нельзя. Собравшись вместе, они нарушат обет молчания и сделают всё, чтобы их прошлое не уничтожило настоящее. Если секрет, хранимый два десятилетия, узнают посторонние, их судьбы разрушатся: семьи, карьера, всё полетит под откос. Но смогут ли бывшие товарищи найти взаимопонимание?

Страна: США
Студия: Intrigue
Продолжительность: ~ 00:45:00
Перевод: Любительский (двухголосый) Sunshine Studio
Субтитры: Отсутствуют
Реклама: Присутствует



Файл
Формат: MKV
Качество: HDTV 720р
Видео: MPEG-4 AVC, ~ 3300 Кбит/с, 1280x720
Аудио: 48 kHz, AC3 Dolby Digital, 2/0 (L,R) ch, ~192 kbps

АНОНСЫ ПОПУЛЯРНЫХ РАЗДАЧ


Торрент обновлён, добавлена 10-я серия!
Формат : Matroska
Версия формата : Version 4 / Version 2
Размер файла : 984 Мбайт
Продолжительность : 43 м.
Общий поток : 3176 Кбит/сек
Программа кодирования : Lavf56.36.100
Библиотека кодирования : Lavf56.36.100 / Lavf56.36.100

Видео
Идентификатор : 1
Формат : AVC
Формат/Информация : Advanced Video Codec
Профиль формата : Baseline@L1.3
Параметр CABAC формата : Нет
Параметр ReFrames формата : 2 кадра
Идентификатор кодека : V_MPEG4/ISO/AVC
Продолжительность : 43 м.
Битрейт : 3000 Кбит/сек
Ширина : 1280 пикселей
Высота : 720 пикселей
Соотношение сторон : 16:9
Режим частоты кадров : Постоянный
Частота кадров : 25,000 кадров/сек
Цветовое пространство : YUV
Субдискретизация насыщенности : 4:2:0
Битовая глубина : 8 бит
Тип развёртки : Прогрессивная
Бит/(Пиксели*Кадры) : 0.130
Размер потока : 905 Мбайт (92%)
Библиотека кодирования : x264 core 148 r2579 73ae2d1
Настройки программы : cabac=0 / ref=2 / deblock=1:0:0 / analyse=0x1:0x111 / me=umh / subme=6 / psy=1 / psy_rd=1.00:0.00 / mixed_ref=1 / me_range=16 / chroma_me=1 / trellis=0 / 8x8dct=0 / cqm=0 / deadzone=21,11 / fast_pskip=1 / chroma_qp_offset=-2 / threads=3 / lookahead_threads=1 / sliced_threads=0 / nr=0 / decimate=1 / interlaced=0 / bluray_compat=0 / constrained_intra=0 / bframes=0 / weightp=0 / keyint=250 / keyint_min=25 / scenecut=40 / intra_refresh=0 / rc_lookahead=40 / rc=abr / mbtree=1 / bitrate=3000 / ratetol=1.0 / qcomp=0.60 / qpmin=0 / qpmax=69 / qpstep=4 / ip_ratio=1.40 / aq=1:1.00
Default : Да
Forced : Нет

Аудио
Идентификатор : 2
Формат : AC-3
Формат/Информация : Audio Coding 3
Расширение режима : CM (complete main)
Параметр Endianness формата : Big
Идентификатор кодека : A_AC3
Продолжительность : 43 м.
Вид битрейта : Постоянный
Битрейт : 192 Кбит/сек
Каналы : 2 канала
Расположение каналов : Front: L R
Частота : 48,0 КГц
Частота кадров : 31,250 кадров/сек (1536 spf)
Битовая глубина : 32 бит
Метод сжатия : С потерями
Задержка видео : -5 мс.
Размер потока : 59,5 Мбайт (6%)
Библиотека кодирования : Lavc56.41.100 ac3
Default : Да
Forced : Нет
Внимание! Раздача ведётся путём добавления новых серий; при каждом добавлении создаётся новый торрент. Чтобы начать докачку новой серии, пользователям необходимо сделать следующее:
(1) остановить скачивание,
(2) удалить старый торрент у себя из клиента (старые серии удалять не надо),
(3) скачать новый торрент и запустить его у себя в клиенте вместо старого, при этом указать клиенту путь в старую папку куда и должно происходить скачивание новых серий.

Ваш клиент при этом должен произвести хеширование (проверку) старой папки (если не производит сам - помогите ему сделать это), и будет докачивать только те серии которых у вас ещё нет. Старые серии при этом не удаляются, а продолжают раздаваться!

Eсли вы уже удалили старые серии, то предотвратить повторную закачку старых серий можно, отжав галочку в соответсвующих местах при запуске нового торрента. По возможности, желательно не удалять старые серии как можно дольше чтобы релизёр не столько продолжал раздавать старые серии, а смог сконцентрироваться на новых.



Скачать Игра.в.молчанку.Game.of.Silence.(сезон.01).(Холли.Дэйл.и.лр.).[2016.драма.HDTV].[720p].[DVO.(Sunshine.Studio)].torrent без регистрации
Золото ЗОЛОТАЯ РАЗДАЧА! СКАЧАННОЕ НЕ ЗАСЧИТЫВАЕТСЯ! Золото
Дата: Зарегистрирован   [ Тип: внутренний ] Как тут cкачать?
MAGNET ссылка
MAGNET ссылка


Скачать .torrent

27 KB

Статус: проверено DHT
Скачан: торрент - 34 раз, раздача полностью - 0 раз
Размер: 10,01 GB
Оценка:  - (Голосов: 0)
Поблагодарили: 0
Поделиться ссылкой на эту раздачу с друзьями:
В контактеFacebookОдноклассникиTwitterLivejournalМой МирLiveinternet
 

 
Показать сообщения:    


Вы не можете начинать темы
Вы не можете отвечать на сообщения
Вы не можете редактировать свои сообщения
Вы не можете удалять свои сообщения
Вы не можете голосовать в опросах
Вы не можете прикреплять файлы к сообщениям
Вы можете скачивать файлы