Loading...
Error

Скачать Война Вилли / Willie’s War (Колин Финбоу) [1994, драма, VHSRip-AVС] [AVO (Антон Алексеев)] торрент без регистрации

 
Статистика раздачи
Размер:  1,42 GB   |    Скачан:  28 раз
Сидов:  1  [  0 KB/s  ]  
 
Автор Сообщение

Marsianka

[] 

Информация о фильме
Название: Война Вилли
Оригинальное название: Willie’s War
Год выхода: 1994
Жанр: драма
Режиссер: Колин Финбоу
В ролях: Ли Тернбулл, Джин Александр, Филипп Бодди, Гордон Гриффин, Эдвард Хаймор, Чарльз Кей, Джек Мэй, Алекса Пова, Джемайма Рупер, Тат Уолли

О фильме:
Когда десятилетний Вилли был эвакуирован из восточного Лондона, его выбрал к себе тринадцатилетний Зандер — сын капитана армии, в качестве компаньона в прекрасном загородном доме. Отношение Зандера к нему было высокомерным и издевательским. Вилли не хотел стрелять в птиц, играть в солдатики и заниматься боксом. Его друзьями были только няня Зандера и молодой солдат Блейк. Отец Вилли дезертировал из армии и оказался в соседнем лесу, няня по ночам носила ему еду, но однажны, испугавшись, Блейк стреляет в него...



Производство: Великобритания / Channel Four Films, Children's Film Unit
Продолжительность: 01:11:58
Перевод: авторский одноголосый [Антон Алексеев]

Файл
Качество: VHSRip-AVC
Формат: MKV
Видео: MPEG-4 AVC, 640x480 (4:3), 24.000 fps, 2444 kbps, 0.331 bit/pixel
Аудио #1: русский, MP3 2.0, 44.1 kHz, 128 kbps
Аудио #2: английский, AC3 2.0, 48 kHz, 192 kbps
Формат : Matroska
Версия формата : Version 4 / Version 2
Размер файла : 1,42 Гбайт
Продолжительность : 1 ч. 11 м.
Общий поток : 2820 Кбит/сек
Дата кодирования : UTC 2016-05-10 21:16:54
Программа кодирования : mkvmerge v7.9.0 ('Birds') 64bit
Библиотека кодирования : libebml v1.3.1 + libmatroska v1.4.2

Видео
Идентификатор : 1
Формат : AVC
Формат/Информация : Advanced Video Codec
Профиль формата : Baseline@L3.1
Параметр CABAC формата : Нет
Параметр ReFrames формата : 1 кадр
Параметр GOP формата : M=1, N=33
Идентификатор кодека : V_MPEG4/ISO/AVC
Продолжительность : 1 ч. 11 м.
Битрейт : 2444 Кбит/сек
Ширина : 640 пикселей
Высота : 480 пикселей
Соотношение сторон : 4:3
Режим частоты кадров : Постоянный
Частота кадров : 24,000 кадра/сек
Стандарт вещания : NTSC
Цветовое пространство : YUV
Субдискретизация насыщенности : 4:2:0
Битовая глубина : 8 бит
Тип развёртки : Прогрессивная
Бит/(Пиксели*Кадры) : 0.331
Размер потока : 1,23 Гбайт (87%)
Язык : English
Default : Да
Forced : Нет
Цветовой диапазон : Limited

Аудио #1
Идентификатор : 2
Формат : MPEG Audio
Версия формата : Version 1
Профиль формата : Layer 3
Режим : Joint stereo
Расширение режима : MS Stereo
Идентификатор кодека : A_MPEG/L3
Идентификатор кодека/Подсказка : MP3
Продолжительность : 1 ч. 11 м.
Вид битрейта : Постоянный
Битрейт : 128 Кбит/сек
Каналы : 2 канала
Частота : 44,1 КГц
Метод сжатия : С потерями
Размер потока : 65,9 Мбайт (5%)
Заголовок : Антон Алексеев
Библиотека кодирования : LAME3.97ЄЄЄ@A®!дd
Язык : Russian
Default : Да
Forced : Нет

Аудио #2
Идентификатор : 3
Формат : AC-3
Формат/Информация : Audio Coding 3
Расширение режима : CM (complete main)
Параметр Endianness формата : Big
Идентификатор кодека : A_AC3
Продолжительность : 1 ч. 11 м.
Вид битрейта : Постоянный
Битрейт : 192 Кбит/сек
Каналы : 2 канала
Расположение каналов : Front: L R
Частота : 48,0 КГц
Метод сжатия : С потерями
Размер потока : 98,8 Мбайт (7%)
Язык : English
Default : Нет
Forced : Нет



Скачать Война.Вилли.Willie’s.War.(Колин.Финбоу).[1994.драма.VHSRip-AVС].[AVO.(Антон.Алексеев)].torrent без регистрации
Золото ЗОЛОТАЯ РАЗДАЧА! СКАЧАННОЕ НЕ ЗАСЧИТЫВАЕТСЯ! Золото
Дата: Зарегистрирован   [ Тип: внутренний ] Как тут cкачать?
MAGNET ссылка
MAGNET ссылка


Скачать .torrent

15 KB

Статус: проверено DHT
Скачан: торрент - 28 раз, раздача полностью - 0 раз
Размер: 1,42 GB
Оценка:  - (Голосов: 0)
Поблагодарили: 1
Поделиться ссылкой на эту раздачу с друзьями:
В контактеFacebookОдноклассникиTwitterLivejournalМой МирLiveinternet
 

 
Показать сообщения:    


Вы не можете начинать темы
Вы не можете отвечать на сообщения
Вы не можете редактировать свои сообщения
Вы не можете удалять свои сообщения
Вы не можете голосовать в опросах
Вы не можете прикреплять файлы к сообщениям
Вы можете скачивать файлы