Loading...
Error

Скачать Там внутри / Underneath (Стивен Содерберг) [1995, триллер, драма, криминал, HDRip] [MVO]+[AVO] торрент без регистрации

 
Статистика раздачи
Размер:  1,46 GB   |    Скачан:  32 раза
Сидов:  1  [  0 KB/s  ]  
 
Автор Сообщение

Marsianka

[] 

Информация о фильме
Название: Там внутри
Оригинальное название: Underneath
Год выхода: 1995
Жанр: триллер, драма, криминал
Режиссер: Стивен Содерберг
В ролях: Питер Галлахер, Элисон Эллиотт, Уильям Фихтнер, Адам Трези, Джо Дон Бейкер, Пол Дули, Шелли Дюваль, Элизабет Шу, Анжанетт Комер, Деннис Хилл, Гарри Гоаз, Марк Фелч, Джулс Шарп, Кеннет Д. Харрис, Винсент Гэскинс, Тони Перенски, Рэндалл Брэйди, Ричард Линклейтер, Хелен Кэйтс, Брэд Лелэнд, Джон Мартин

О фильме:
После нескольких лет отсутствия Майкл Чамберс возвращается в свой родной Техас, чтобы присутствовать на свадьбе матери. Когда-то он был вынужден спешно покинуть город, оставив большие долги, родных и возлюбленную Рэйчел. Теперь он намерен отыскать ее, вернуть назад и наладить жизнь. Майк устраивается охранником и начинает работать вместе с новым мужем матери на инкассаторской бронированной машине. А вскоре оказывается втянутым в неприятную криминальную историю.



Страна: США
Студия: Gramercy Pictures, Populist Pictures
Продолжительность: 01:39:06
Перевод: Профессиональный (многоголосый, закадровый) R5, авторский (одноголосый, закадровый) П. Карцев

Файл
Формат: AVI
Качество: HDRip
Видео: XviD, 720x304, 23.976 fps, 1717 kbps
Аудио #1: Русский (AC3, 2 ch, 192 Кбит/с) | R5
Аудио #2: Русский (AC3, 2 ch, 192 Кбит/с) | Пётр Карцев
Субтитры: | отсутствуют |
Общее
Полное имя : Underneath.1995.HDRip.1450MB.MegaPeer.avi
Формат : AVI
Формат/Информация : Audio Video Interleave
Размер файла : 1,46 Гбайт
Продолжительность : 1 ч. 39 м.
Общий поток : 2112 Кбит/сек

Видео
Идентификатор : 0
Формат : MPEG-4 Visual
Профиль формата : Advanced Simple@L5
Параметр BVOP формата : 1
Параметр QPel формата : Нет
Параметр GMC формата : Без точки перехода
Параметр матрицы формата : Выборочная
Идентификатор кодека : XVID
Идентификатор кодека/Подсказка : XviD
Продолжительность : 1 ч. 39 м.
Битрейт : 1718 Кбит/сек
Ширина : 720 пикселей
Высота : 304 пикселя
Соотношение сторон : 2,35:1
Частота кадров : 23,976 (24000/1001) кадра/сек
Цветовое пространство : YUV
Субдискретизация насыщенности : 4:2:0
Битовая глубина : 8 бит
Тип развёртки : Прогрессивная
Метод сжатия : С потерями
Бит/(Пиксели*Кадры) : 0.327
Размер потока : 1,19 Гбайт (81%)
Библиотека кодирования : XviD 73

Аудио #1
Идентификатор : 1
Формат : AC-3
Формат/Информация : Audio Coding 3
Расширение режима : CM (complete main)
Параметр Endianness формата : Big
Идентификатор кодека : 2000
Продолжительность : 1 ч. 39 м.
Вид битрейта : Постоянный
Битрейт : 192 Кбит/сек
Каналы : 2 канала
Расположение каналов : Front: L R
Частота : 48,0 КГц
Частота кадров : 31,250 кадров/сек (1536 spf)
Метод сжатия : С потерями
Размер потока : 136 Мбайт (9%)
Выравнивание : Соединение по промежуткам
Продолжительность промежутка : 64 мс. (1,53 видеокадра)
Время предзагрузки промежутка : 192 мс.
Заголовок : R5

Аудио #2
Идентификатор : 2
Формат : AC-3
Формат/Информация : Audio Coding 3
Расширение режима : CM (complete main)
Параметр Endianness формата : Big
Идентификатор кодека : 2000
Продолжительность : 1 ч. 39 м.
Вид битрейта : Постоянный
Битрейт : 192 Кбит/сек
Каналы : 2 канала
Расположение каналов : Front: L R
Частота : 48,0 КГц
Частота кадров : 31,250 кадров/сек (1536 spf)
Метод сжатия : С потерями
Размер потока : 136 Мбайт (9%)
Выравнивание : Соединение по промежуткам
Продолжительность промежутка : 64 мс. (1,53 видеокадра)
Время предзагрузки промежутка : 192 мс.
Заголовок : П. Карцев



Скачать Там.внутри.Underneath.(Стивен.Содерберг).[1995.триллер.драма.криминал.HDRip].[MVO]+[AVO].torrent без регистрации
Золото ЗОЛОТАЯ РАЗДАЧА! СКАЧАННОЕ НЕ ЗАСЧИТЫВАЕТСЯ! Золото
Дата: Зарегистрирован   [ Тип: внутренний ] Как тут cкачать?
MAGNET ссылка
MAGNET ссылка


Скачать .torrent

15 KB

Статус: проверено DHT
Скачан: торрент - 32 раз, раздача полностью - 23 раз
Размер: 1,46 GB
Оценка:  - (Голосов: 0)
Поблагодарили: 1
Поделиться ссылкой на эту раздачу с друзьями:
В контактеFacebookОдноклассникиTwitterLivejournalМой МирLiveinternet
 

 
Показать сообщения:    


Вы не можете начинать темы
Вы не можете отвечать на сообщения
Вы не можете редактировать свои сообщения
Вы не можете удалять свои сообщения
Вы не можете голосовать в опросах
Вы не можете прикреплять файлы к сообщениям
Вы можете скачивать файлы