Loading...
Error

Скачать Провал во времени / Retroactive (Луис Морно) [1997, фантастика, триллер, криминал, приключения, BDRip-AVC] [MVO]x2+[DVO]+[AVO]x2+[Оригинал]+[Sub]x2 торрент без регистрации

 
Статистика раздачи
Размер:  1,46 GB   |    Скачан:  42 раза
Сидов:  1  [  0 KB/s  ]  
 
Автор Сообщение

Marsianka

[] 

Производство: США, Cohiba Pictures, Orion Pictures Entertainment, Scanbox Entertainment
Жанр: фантастика, триллер, криминал, приключения

Режиссер: Луис Морно
Актеры: Джеймс Белуши, Кайли Трэвис, Шэннон Уирри, Фрэнк Уэйли, Джесси Боррего, М. Эммет Уолш, Шерман Ховард, Гай Бойд, Кристина Коггинс, Робби Тибо мл.

Описание:
Оставшись без автомобиля в результате небольшой аварии, Карен садится в машину к водителю Фрэнку и его жене Райан, чтобы добраться до города. На ближайшей автозаправке Фрэнк ссорится с человеком и пускает в ход оружие, пытаясь убить заодно и всех присутствующих как свидетелей. Карен в испуге бежит к ближайшему зданию и попадает в лабораторию ученого, который проводит эксперимент по перемещению во времени. Карен удается попасть в прошлое, когда эти кровавые события еще не начались. Девушка несколько раз пытается переместиться, чтобы предотвратить трагедию на заправке, но у нее ничего не получается, так как у нее очень маленький временной промежуток - всего 20 минут. Но этот провал во времени может помочь Карен изменить ситуацию, зная будущее. Получится ли у нее это?



Релиз от: K.E.N (NNM-CLUB)
Продолжительность: 01:30:58
Качество видео: BDRip-AVC
Перевод: Профессиональный многоголосый, профессиональный двухголосый, авторский
Язык Субтитров: Русский, английский
Вид субтитров: Вшитые, отключаемые

Видео: MPEG-4 AVC, 1024x434 (2.35:1), 23.976 fps, 2 784 Kbps (0.261 bit/pixel)
Аудио #1: AC3, 2.0 ch, 48 kHz, 192 kbps - двухголосый НТВ+
Аудио #2: AC3, 2.0 ch, 48 kHz, 192 kbps - многоголосый СВ-Кадр (ТВ6)
Аудио #3: AC3, 2.0 ch, 48 kHz, 256 kbps - многоголосый СТС
Аудио #4: AC3, 2.0 ch, 48 kHz, 192 kbps - авторский Юрий Сербин)
Аудио #5: AC3, 5.1 ch, 48 kHz, 448 kbps - авторский Сергей Визгунов)
Аудио #6: AC3, 5.1 ch, 48 kHz, 384 kbps - оригинал (английский)

Формат : Matroska
Версия формата : Version 2
Размер файла : 2,83 Гбайт
Продолжительность : 1 ч. 30 м.
Общий поток : 4450 Кбит/сек
Дата кодирования : UTC 2016-05-17 09:20:20
Программа кодирования : mkvmerge v5.3.0 ('I could have danced') built on Feb 9 2012 10:38:07
Библиотека кодирования : libebml v1.2.3 + libmatroska v1.3.0
Attachment : Yes

Видео
Идентификатор : 1
Формат : AVC
Формат/Информация : Advanced Video Codec
Профиль формата : High@L4.1
Параметр CABAC формата : Да
Параметр ReFrames формата : 12 кадров
Идентификатор кодека : V_MPEG4/ISO/AVC
Продолжительность : 1 ч. 30 м.
Битрейт : 2784 Кбит/сек
Ширина : 1024 пикселя
Высота : 434 пикселя
Соотношение сторон : 2,35:1
Режим частоты кадров : Постоянный
Частота кадров : 23,976 кадра/сек
Цветовое пространство : YUV
Субдискретизация насыщенности : 4:2:0
Битовая глубина : 8 бит
Тип развёртки : Прогрессивная
Бит/(Пиксели*Кадры) : 0.261
Размер потока : 1,71 Гбайт (61%)
Библиотека кодирования : x264 core 146 r2538 121396c
Настройки программы : cabac=1 / ref=12 / deblock=1:-3:-3 / analyse=0x3:0x133 / me=umh / subme=11 / psy=1 / psy_rd=1.00:0.10 / mixed_ref=1 / me_range=32 / chroma_me=1 / trellis=2 / 8x8dct=1 / cqm=0 / deadzone=21,11 / fast_pskip=0 / chroma_qp_offset=-3 / threads=12 / lookahead_threads=2 / sliced_threads=0 / nr=0 / decimate=0 / interlaced=0 / bluray_compat=0 / constrained_intra=0 / bframes=8 / b_pyramid=2 / b_adapt=2 / b_bias=0 / direct=3 / weightb=1 / open_gop=0 / weightp=2 / keyint=240 / keyint_min=23 / scenecut=40 / intra_refresh=0 / rc=2pass / mbtree=0 / bitrate=2784 / ratetol=1.0 / qcomp=0.60 / qpmin=0 / qpmax=69 / qpstep=4 / cplxblur=20.0 / qblur=0.5 / ip_ratio=1.40 / pb_ratio=1.30 / aq=1:0.70
Язык : English
Default : Да
Forced : Нет

Аудио #1
Идентификатор : 2
Формат : AC-3
Формат/Информация : Audio Coding 3
Расширение режима : CM (complete main)
Параметр Endianness формата : Big
Идентификатор кодека : A_AC3
Продолжительность : 1 ч. 30 м.
Вид битрейта : Постоянный
Битрейт : 192 Кбит/сек
Каналы : 2 канала
Расположение каналов : Front: L R
Частота : 48,0 КГц
Битовая глубина : 16 бит
Метод сжатия : С потерями
Размер потока : 125 Мбайт (4%)
Заголовок : Многоголосый (НТВ+)
Язык : Russian
Default : Да
Forced : Нет

Аудио #2
Идентификатор : 3
Формат : AC-3
Формат/Информация : Audio Coding 3
Расширение режима : CM (complete main)
Параметр Endianness формата : Big
Идентификатор кодека : A_AC3
Продолжительность : 1 ч. 30 м.
Вид битрейта : Постоянный
Битрейт : 192 Кбит/сек
Каналы : 2 канала
Расположение каналов : Front: L R
Частота : 48,0 КГц
Битовая глубина : 16 бит
Метод сжатия : С потерями
Размер потока : 125 Мбайт (4%)
Заголовок : Многоголосый (СВ-кадр (ТВ-3))
Язык : Russian
Default : Нет
Forced : Нет

Аудио #3
Идентификатор : 4
Формат : AC-3
Формат/Информация : Audio Coding 3
Расширение режима : CM (complete main)
Параметр Endianness формата : Big
Идентификатор кодека : A_AC3
Продолжительность : 1 ч. 30 м.
Вид битрейта : Постоянный
Битрейт : 256 Кбит/сек
Каналы : 2 канала
Расположение каналов : Front: L R
Частота : 48,0 КГц
Битовая глубина : 16 бит
Метод сжатия : С потерями
Размер потока : 167 Мбайт (6%)
Заголовок : Многоголосы (СТС)
Язык : Russian
Default : Нет
Forced : Нет

Аудио #4
Идентификатор : 5
Формат : AC-3
Формат/Информация : Audio Coding 3
Расширение режима : CM (complete main)
Параметр Endianness формата : Big
Идентификатор кодека : A_AC3
Продолжительность : 1 ч. 30 м.
Вид битрейта : Постоянный
Битрейт : 192 Кбит/сек
Каналы : 2 канала
Расположение каналов : Front: L R
Частота : 48,0 КГц
Битовая глубина : 16 бит
Метод сжатия : С потерями
Размер потока : 125 Мбайт (4%)
Заголовок : Авторский Ю.Сербин
Язык : Russian
Default : Нет
Forced : Нет

Аудио #5
Идентификатор : 6
Формат : AC-3
Формат/Информация : Audio Coding 3
Расширение режима : CM (complete main)
Параметр Endianness формата : Big
Идентификатор кодека : A_AC3
Продолжительность : 1 ч. 30 м.
Вид битрейта : Постоянный
Битрейт : 448 Кбит/сек
Каналы : 6 каналов
Расположение каналов : Front: L C R, Side: L R, LFE
Частота : 48,0 КГц
Битовая глубина : 16 бит
Метод сжатия : С потерями
Размер потока : 292 Мбайт (10%)
Заголовок : Авторский С.Визгунов
Язык : Russian
Default : Нет
Forced : Нет

Аудио #6
Идентификатор : 7
Формат : AC-3
Формат/Информация : Audio Coding 3
Расширение режима : CM (complete main)
Параметр Endianness формата : Big
Идентификатор кодека : A_AC3
Продолжительность : 1 ч. 30 м.
Вид битрейта : Постоянный
Битрейт : 384 Кбит/сек
Каналы : 6 каналов
Расположение каналов : Front: L C R, Side: L R, LFE
Частота : 48,0 КГц
Битовая глубина : 16 бит
Метод сжатия : С потерями
Размер потока : 250 Мбайт (9%)
Заголовок : оригинал
Язык : English
Default : Нет
Forced : Нет

Текст #1
Идентификатор : 8
Формат : UTF-8
Идентификатор кодека : S_TEXT/UTF8
Идентификатор кодека/Информация : UTF-8 Plain Text
Язык : Russian
Default : Нет
Forced : Нет

Текст #2
Идентификатор : 9
Формат : UTF-8
Идентификатор кодека : S_TEXT/UTF8
Идентификатор кодека/Информация : UTF-8 Plain Text
Язык : English
Default : Нет
Forced : Нет

Меню
00:00:00.000 : :Chapter 01
00:06:46.948 : :Chapter 02
00:08:56.161 : :Chapter 03
00:12:21.156 : :Chapter 04
00:18:19.682 : :Chapter 05
00:23:28.073 : :Chapter 06
00:31:17.209 : :Chapter 07
00:38:54.332 : :Chapter 08
00:45:28.141 : :Chapter 09
00:49:14.785 : :Chapter 10
00:54:08.536 : :Chapter 11
01:01:34.316 : :Chapter 12
01:09:13.566 : :Chapter 13
01:16:24.455 : :Chapter 14
01:20:28.240 : :Chapter 15
01:26:57.462 : :Chapter 16



Скачать Провал.во.времени.Retroactive.(Луис.Морно).[1997.фантастика.триллер.криминал.приключения.BDRip-AVC].[MVO]x2+[DVO]+[AVO]x2+[Оригинал]+[Sub]x2.torrent без регистрации
Золото ЗОЛОТАЯ РАЗДАЧА! СКАЧАННОЕ НЕ ЗАСЧИТЫВАЕТСЯ! Золото
Дата: Зарегистрирован   [ Тип: внутренний ] Как тут cкачать?
MAGNET ссылка
MAGNET ссылка


Скачать .torrent

15 KB

Статус: проверено DHT
Скачан: торрент - 42 раз, раздача полностью - 8 раз
Размер: 1,46 GB
Оценка:  - (Голосов: 0)
Поблагодарили: 0
Поделиться ссылкой на эту раздачу с друзьями:
В контактеFacebookОдноклассникиTwitterLivejournalМой МирLiveinternet
 

 
Показать сообщения:    


Вы не можете начинать темы
Вы не можете отвечать на сообщения
Вы не можете редактировать свои сообщения
Вы не можете удалять свои сообщения
Вы не можете голосовать в опросах
Вы не можете прикреплять файлы к сообщениям
Вы можете скачивать файлы