Loading...
Error

Скачать Странная парочка / The Odd Couple (Сезон 01) (Фил Льюис, Марк Сендроуски, Кэти Гарретсон) [2015, Комедия, WEB-DLRip] [MVO] (FocusStudio) торрент без регистрации

 
Статистика раздачи
Размер:  3,02 GB   |    Скачан:  523 раза
Сидов:  1  [  0 KB/s  ]  
 
Автор Сообщение

leon030982

[] 

Странная парочка | The Odd Couple


«Два холостяка. Одна квартира. Ничего общего.»


Год выпуска: 2015
Страна: США
Жанр: Комедия
Продолжительность: 1x ~ 00:22:00
Перевод: Профессиональный (многоголосый, закадровый) [FocusStudio]
Субтитры: нет

Режиссёр: Фил Льюис / Phill Lewis, Марк Сендроуски / Mark Cendrowski, Кэти Гарретсон / Katy Garretson

В ролях: Matthew Perry (Оскар Мэдисон), Thomas Lennon (Феликс Ангер), Yvette Nicole Brown (Дэни), Lindsay Sloane(Эмили), Wendell Pierce (Тедди), Geoff Stults (Мёрф), Judy Kain (Морин), Dave Foley (Рой) и др.

Описание: Сериал «Странная парочка» рассказывает о жизни двух разведённых приятелей под одной крышей. Фотограф Феликс и спортивный журналист Оскар - два лучших друга, которым приходиться делить одно жилье на двоих, после того как Феликса выставляет из дома его жена Эшли. Совместный быт мужчин средних лет, годами оттачивающих привычки – штука непростая. Приходится многому учиться с нуля и находить точки соприкосновения. Хорошо, что есть очаровательные соседки и ворчливые друзья, способные в нужный момент сгладить углы и вмешаться в процесс приспособления…



Качество: WEB-DLRip
Формат: AVI
Видео кодек: XvID
Аудио кодек: AC3
Видео: 720x400 (1.80:1), 23.976 fps, XviD ~1336 kbps avg, 0.203 bit/pixel
Аудио 1: 48 kHz, MPEG Layer 3, 2 ch, ~128.00 kbps [MVO]
Аудио 2: 48 kHz, MPEG Layer 3, 2 ch, ~128.00 kbps [ENG]

Релиз --
Перевод: Александр Митраков

Торент обновлен. Добавлены 9-12-я серии!

Код:

General
Complete name                            : E:\The.Odd.Couple.S01.WEB-DLRip.FocusStudio\The.Odd.Couple.S01E01.WEB-DLRip.FocusStudio.avi
Format                                   : AVI
Format/Info                              : Audio Video Interleave
File size                                : 258 MiB
Duration                                 : 21mn 36s
Overall bit rate                         : 1 669 Kbps
Writing application                      : VirtualDubMod 1.5.10.3 | www.virtualdub-fr.org || (build 2550/release)
Writing library                          : VirtualDubMod build 2550/release

Video
ID                                       : 0
Format                                   : MPEG-4 Visual
Format profile                           : Advanced Simple@L5
Format settings, BVOP                    : 1
Format settings, QPel                    : No
Format settings, GMC                     : No warppoints
Format settings, Matrix                  : Default (MPEG)
Codec ID                                 : XVID
Codec ID/Hint                            : XviD
Duration                                 : 21mn 36s
Bit rate                                 : 1 336 Kbps
Width                                    : 720 pixels
Height                                   : 400 pixels
Display aspect ratio                     : 16:9
Frame rate                               : 23.976 fps
Color space                              : YUV
Chroma subsampling                       : 4:2:0
Bit depth                                : 8 bits
Scan type                                : Progressive
Compression mode                         : Lossy
Bits/(Pixel*Frame)                       : 0.194
Stream size                              : 207 MiB (80%)
Writing library                          : XviD 1.2.1 (UTC 2008-12-04)

Audio #1
ID                                       : 1
Format                                   : MPEG Audio
Format version                           : Version 1
Format profile                           : Layer 3
Mode                                     : Joint stereo
Mode extension                           : MS Stereo
Codec ID                                 : 55
Codec ID/Hint                            : MP3
Duration                                 : 21mn 36s
Bit rate mode                            : Constant
Bit rate                                 : 128 Kbps
Channel(s)                               : 2 channels
Sampling rate                            : 48.0 KHz
Compression mode                         : Lossy
Stream size                              : 19.8 MiB (8%)
Alignment                                : Aligned on interleaves
Title                                    : Russian

Audio #2
ID                                       : 2
Format                                   : MPEG Audio
Format version                           : Version 1
Format profile                           : Layer 3
Mode                                     : Joint stereo
Mode extension                           : MS Stereo
Codec ID                                 : 55
Codec ID/Hint                            : MP3
Duration                                 : 21mn 36s
Bit rate mode                            : Constant
Bit rate                                 : 128 Kbps
Channel(s)                               : 2 channels
Sampling rate                            : 48.0 KHz
Compression mode                         : Lossy
Stream size                              : 19.8 MiB (8%)
Alignment                                : Aligned on interleaves
Title                                    : English
Внимание! Раздача ведётся путём добавления новых серий; при каждом добавлении создаётся новый торрент. Чтобы начать докачку новой серии, пользователям необходимо сделать следующее:
(1) остановить скачивание,
(2) удалить старый торрент у себя из клиента (старые серии удалять не надо),
(3) скачать новый торрент и запустить его у себя в клиенте вместо старого, при этом указать клиенту путь в старую папку куда и должно происходить скачивание новых серий.
Ваш клиент при этом должен произвести хеширование (проверку) старой папки (если не производит сам - помогите ему сделать это), и будет докачивать только те серии которых у вас ещё нет. Старые серии при этом не удаляются, а продолжают раздаваться!
Eсли вы уже удалили старые серии, то предотвратить повторную закачку старых серий можно, отжав галочку в соответствующих местах при запуске нового торрента. По возможности, желательно не удалять старые серии как можно дольше чтобы релизер не столько продолжал раздавать старые серии, а смог сконцентрироваться на новых.





Скачать Странная.парочка.The.Odd.Couple.(Сезон.01).(Фил.Льюис.Марк.Сендроуски.Кэти.Гарретсон).[2015.Комедия.WEB-DLRip].[MVO].(FocusStudio).torrent без регистрации
Золото ЗОЛОТАЯ РАЗДАЧА! СКАЧАННОЕ НЕ ЗАСЧИТЫВАЕТСЯ! Золото
Дата: Зарегистрирован   [ Тип: внутренний ] Как тут cкачать?
MAGNET ссылка
MAGNET ссылка


Скачать .torrent

32 KB

Статус: проверено DHT
Скачан: торрент - 523 раз, раздача полностью - 25 раз
Размер: 3,02 GB
Оценка:  - (Голосов: 0)
Поблагодарили: 2
Поделиться ссылкой на эту раздачу с друзьями:
В контактеFacebookОдноклассникиTwitterLivejournalМой МирLiveinternet
 

 

leon030982

[] 

Добавлены 5-8-я серии
 
Показать сообщения:    


Вы не можете начинать темы
Вы не можете отвечать на сообщения
Вы не можете редактировать свои сообщения
Вы не можете удалять свои сообщения
Вы не можете голосовать в опросах
Вы не можете прикреплять файлы к сообщениям
Вы можете скачивать файлы