Loading...
Error

Скачать Игра престолов / Game of Thrones (Сезон 06) [2016, фэнтези, драма, WEB-DL] [1080p] [MVO] (FocusStudio) торрент без регистрации

 
Статистика раздачи
Размер:  21,66 GB   |    Скачан:  358 раз
Сидов:  1  [  0 KB/s  ]  
 
Автор Сообщение

leon030982

[] 

Игра престолов / Game of Thrones



Год выпуска: 2016
Страна: США, Великобритания
Жанр: фэнтези, драма
Продолжительность: 1 х ~ 01:00:00
Озвучание: Профессиональное (многоголосое закадровое) (FocusStudio)
Субтитры: русские форсированные (на дотракийскую и валирийскую речь)

Авторы сценария: Дэвид Беньофф, Д.Б.Вейсс, Брайан Когман, Дэйв Хилл
Режиссеры: Майкл Словис, Марк Майлод, Джереми Подесва, Мигель Сапочник, Дэвид Наттер

В ролях: Питер Динклэйдж (Тирион Ланнистер), Лена Хиди (Серсея Ланнистер), Николай Костер-Вальдау (Джейме Ланнистер), Эмилия Кларк (Дейенерис Таргариен), Эйдан Гиллен (Петир Бейлиш), Иэн Глен (сир Джорах Мормонт), Кит Харингтон (Джон Сноу), Лиам Каннингэм (сир Давос Сиворт), Айзек Хэмпстед-Райт (Бран Старк), Софи Тернер (Санса Старк), Мэйси Уильямс (Арья Старк), Элфи Аллен (Теон Грейджой), Джон Брэдли-Уэст (Сэмвел Тарли), Стивен Диллэйн (король Станнис Баратеон), Кэрис Ван Хаутен (Мелисандра), Джером Флинн (Бронн), Конлет Хилл (лорд Варис)...


«Игра престолов» сериал HBO, основанный на бестселлерах Джорджа Р.Р. Мартина. В мире, где лето и зимы длятся десятилетиями, на кону корона Вестероса. Предательство, похоть, интриги и сверхъестественные силы сотрясают все четыре стороны Королевства — от плетущего интриги юга, диких восточных земель, до замерзшего севера и древней Стены, что защищает королевство от тьмы за нею. Короли и королевы, рыцари и мятежники, лжецы и благородные люди борются за власть в кровавом сражении за Железный Трон.

Релиз:



Внимание! В сериале присутствуют сцены с обнаженной натурой!

Качество: WEB-DL 1080p
Формат: MKV
Видео: 1912x1072 (16:9), 23.976 fps, MPEG-4 AVC ~5000 kbps, 0.10 bit/pixel
Аудио Rus: 48 kHz, AC3 Dolby Digital, 3/2 (L,C,R,l,r) + LFE ch, ~384.00 kbps
Аудио Eng: 48 kHz, AC3 Dolby Digital, 3/2 (L,C,R,l,r) + LFE ch, ~384.00 kbps

Добавлена 8-10-я серия!

Код:

Format : Matroska
Format version : Version 4 / Version 2
File size : 1.99 GiB
Duration : 50mn 0s
Overall bit rate : 5 709 Kbps
Movie name : Game of Thrones 6x1 @ FocusStudio
Encoded date : UTC 2016-04-28 17:04:36
Writing application : mkvmerge v8.1.0 ('Psychedelic Postcard') 64bit
Writing library : libebml v1.3.1 + libmatroska v1.4.2
Video
ID : 1
Format : AVC
Format/Info : Advanced Video Codec
Format profile : High@L4
Format settings, CABAC : Yes
Format settings, ReFrames : 4 frames
Codec ID : V_MPEG4/ISO/AVC
Duration : 50mn 0s
Bit rate : 4 827 Kbps
Width : 1 912 pixels
Height : 1 072 pixels
Display aspect ratio : 16:9
Frame rate mode : Constant
Frame rate : 23.976 fps
Color space : YUV
Chroma subsampling : 4:2:0
Bit depth : 8 bits
Scan type : Progressive
Bits/(Pixel*Frame) : 0.098
Stream size : 1.69 GiB (85%)
Language : English
Default : Yes
Forced : No
Color range : Limited
Color primaries : BT.709
Transfer characteristics : BT.709
Matrix coefficients : BT.709
Audio #1
ID : 2
Format : AC-3
Format/Info : Audio Coding 3
Mode extension : CM (complete main)
Format settings, Endianness : Big
Codec ID : A_AC3
Duration : 50mn 0s
Bit rate mode : Constant
Bit rate : 384 Kbps
Channel(s) : 6 channels
Channel positions : Front: L C R, Side: L R, LFE
Sampling rate : 48.0 KHz
Compression mode : Lossy
Stream size : 137 MiB (7%)
Language : Russian
Default : Yes
Forced : No
Audio #2
ID : 3
Format : AC-3
Format/Info : Audio Coding 3
Mode extension : CM (complete main)
Format settings, Endianness : Big
Codec ID : A_AC3
Duration : 50mn 0s
Bit rate mode : Constant
Bit rate : 384 Kbps
Channel(s) : 6 channels
Channel positions : Front: L C R, Side: L R, LFE
Sampling rate : 48.0 KHz
Compression mode : Lossy
Stream size : 137 MiB (7%)
Language : English
Default : No
Forced : No
Text
ID : 4
Format : ASS
Codec ID : S_TEXT/ASS
Codec ID/Info : Advanced Sub Station Alpha
Compression mode : Lossless
Title : Forced
Language : Russian
Default : Yes
Forced : Yes
Внимание! Раздача ведётся путём добавления новых серий; при каждом добавлении создаётся новый торрент. Чтобы начать докачку новой серии, пользователям необходимо сделать следующее:
(1) остановить скачивание,
(2) удалить старый торрент у себя из клиента (старые серии удалять не надо),
(3) скачать новый торрент и запустить его у себя в клиенте вместо старого, при этом указать клиенту путь в старую папку куда и должно происходить скачивание новых серий.
Ваш клиент при этом должен произвести хеширование (проверку) старой папки (если не производит сам - помогите ему сделать это), и будет докачивать только те серии которых у вас ещё нет. Старые серии при этом не удаляются, а продолжают раздаваться!
Eсли вы уже удалили старые серии, то предотвратить повторную закачку старых серий можно, отжав галочку в соответствующих местах при запуске нового торрента. По возможности, желательно не удалять старые серии как можно дольше чтобы релизёр не столько продолжал раздавать старые серии, а смог сконцентрироваться на новых.



Скачать Игра.престолов.Game.of.Thrones.(Сезон.06).[2016.фэнтези.драма.WEB-DL].[1080p].[MVO].(FocusStudio).torrent без регистрации
Золото ЗОЛОТАЯ РАЗДАЧА! СКАЧАННОЕ НЕ ЗАСЧИТЫВАЕТСЯ! Золото
Дата: Зарегистрирован   [ Тип: внутренний ] Как тут cкачать?
MAGNET ссылка
MAGNET ссылка


Скачать .torrent

218 KB

Статус: проверено DHT
Скачан: торрент - 358 раз, раздача полностью - 4 раз
Размер: 21,66 GB
Оценка:  4,5 (Голосов: 2)
Поблагодарили: 4
Поделиться ссылкой на эту раздачу с друзьями:
В контактеFacebookОдноклассникиTwitterLivejournalМой МирLiveinternet
 

 

leon030982

[] 

Добавлена 5-я серия!
 
Показать сообщения:    


Вы не можете начинать темы
Вы не можете отвечать на сообщения
Вы не можете редактировать свои сообщения
Вы не можете удалять свои сообщения
Вы не можете голосовать в опросах
Вы не можете прикреплять файлы к сообщениям
Вы можете скачивать файлы