Loading...
Error

Скачать Вопросы и ответы / Q & A (Сидни Люмет) [1990, триллер, драма, криминал, BDRip-AVC] [MVO]+[DVO] торрент без регистрации

 
Статистика раздачи
Размер:  2,74 GB   |    Скачан:  31 раз
Сидов:  1  [  0 KB/s  ]  
 
Автор Сообщение

Marsianka

[] 

Информация о фильме
Название: Вопросы и ответы
Оригинальное название: Q & A
Год выхода: 1990
Жанр: триллер, драма, криминал
Режиссер: Сидни Люмет
В ролях: Ник Нолти, Тимоти Хаттон, Арманд Ассанте, Патрик О’Нил, Ли Ричардсон, Луис Гусман, Чарльз С. Даттон, Дженни Люмет, Пол Кальдерон, Интернэшнл Кризис

О фильме:
Когда Майк Брэннан, бывалый нью-йоркский полицейский с крутым нравом, безжалостно расправляется с мелким гангстером, прокурор поручает молодому юристу Элу Фрэнсису провести формальное дознание, чтобы отчитаться перед законом и списать дело в архив.Никто не сомневается, что Майк, для которого ненависть к ворам и убийцам стала наваждением, поступил правильно, но показания наркодилера Декса говорят об обратном. Оказавшись перед нелегким выбором, Эл решает провести справедливое расследование.Он знает, что рискует не только честью, но и жизнью, ведь в суровом мире крутых копов и безжалостных бандитов предательство не прощается...



Страна: США
Студия: Odyssey Distributors, Regency International Pictures
Продолжительность: 02:12:26
Перевод: Профессиональный многоголосый, профессиональный двухголосый

Файл
Кодек: x264
Качество: BDRip-AVC
Видео: MPEG-4 AVC, 2380 Кбит/с, 1024x576, 23.976 кадр/с
Аудио #1: АС3, 2 ch, 192 Кбит/с | Профессиональный двухголосый (НТВ+)
Аудио #2: АС3, 2 ch, 192 Кбит/с | Профессиональный многоголосый (РТР)
Аудио #3: АС3, 2 ch, 192 Кбит/с | Английский
Общее
Уникальный идентификатор : 216056168112061248203521312136351919009 (0xA28AE785AFFABF879E227B7484A72BA1)
Полное имя : Q.A.1990.BDRip-AVC.mkv
Формат : Matroska
Версия формата : Version 4 / Version 2
Размер файла : 2,74 Гбайт
Продолжительность : 2 ч. 12 м.
Общий поток : 2958 Кбит/сек
Название фильма : Q & A
Режиссёр : Sidney Lumet
Дата кодирования : UTC 2016-05-19 16:46:35
Программа кодирования : mkvmerge v7.7.0 ('Six Voices') 32bit built on Feb 28 2015 23:23:00
Библиотека кодирования : libebml v1.3.1 + libmatroska v1.4.2
Attachements : cover.jpg
Release : Koenig
DURATION : 02:12:24.864000000
NUMBER_OF_FRAMES : 248277
NUMBER_OF_BYTES : 190676736
_STATISTICS_WRITING_APP : mkvmerge v7.7.0 ('Six Voices') 32bit built on Feb 28 2015 23:23:00
_STATISTICS_WRITING_DATE_UTC : 2016-05-19 16:46:35
_STATISTICS_TAGS : BPS DURATION NUMBER_OF_FRAMES NUMBER_OF_BYTES

Видео
Идентификатор : 1
Формат : AVC
Формат/Информация : Advanced Video Codec
Профиль формата : High@L4.1
Параметр CABAC формата : Да
Параметр ReFrames формата : 9 кадров
Идентификатор кодека : V_MPEG4/ISO/AVC
Продолжительность : 2 ч. 12 м.
Битрейт : 2380 Кбит/сек
Ширина : 1024 пикселя
Высота : 576 пикселей
Соотношение сторон : 16:9
Режим частоты кадров : Постоянный
Частота кадров : 23,976 кадра/сек
Цветовое пространство : YUV
Субдискретизация насыщенности : 4:2:0
Битовая глубина : 8 бит
Тип развёртки : Прогрессивная
Бит/(Пиксели*Кадры) : 0.168
Размер потока : 2,15 Гбайт (79%)
Библиотека кодирования : x264 core 146 r2538 121396c
Настройки программы : cabac=1 / ref=9 / deblock=1:-3:-3 / analyse=0x3:0x133 / me=umh / subme=10 / psy=1 / psy_rd=1.00:0.10 / mixed_ref=1 / me_range=32 / chroma_me=1 / trellis=2 / 8x8dct=1 / cqm=0 / deadzone=21,11 / fast_pskip=0 / chroma_qp_offset=-3 / threads=3 / lookahead_threads=1 / sliced_threads=0 / nr=0 / decimate=1 / interlaced=0 / bluray_compat=0 / constrained_intra=0 / bframes=9 / b_pyramid=2 / b_adapt=2 / b_bias=0 / direct=3 / weightb=1 / open_gop=0 / weightp=2 / keyint=240 / keyint_min=23 / scenecut=40 / intra_refresh=0 / rc_lookahead=40 / rc=2pass / mbtree=1 / bitrate=2380 / ratetol=1.0 / qcomp=0.60 / qpmin=10 / qpmax=51 / qpstep=4 / cplxblur=20.0 / qblur=0.5 / vbv_maxrate=50000 / vbv_bufsize=62500 / nal_hrd=none / filler=0 / ip_ratio=1.40 / aq=1:1.00
Default : Да
Forced : Нет

Аудио #1
Идентификатор : 2
Формат : AC-3
Формат/Информация : Audio Coding 3
Расширение режима : CM (complete main)
Параметр Endianness формата : Big
Идентификатор кодека : A_AC3
Продолжительность : 2 ч. 12 м.
Вид битрейта : Постоянный
Битрейт : 192 Кбит/сек
Каналы : 2 канала
Расположение каналов : Front: L R
Частота : 48,0 КГц
Метод сжатия : С потерями
Размер потока : 182 Мбайт (6%)
Заголовок : DVO - НТВ+
Язык : Russian
Default : Нет
Forced : Нет

Аудио #2
Идентификатор : 3
Формат : AC-3
Формат/Информация : Audio Coding 3
Расширение режима : CM (complete main)
Параметр Endianness формата : Big
Идентификатор кодека : A_AC3
Продолжительность : 2 ч. 12 м.
Вид битрейта : Постоянный
Битрейт : 192 Кбит/сек
Каналы : 2 канала
Расположение каналов : Front: L R
Частота : 48,0 КГц
Метод сжатия : С потерями
Размер потока : 182 Мбайт (6%)
Заголовок : Mvo - РТР
Язык : Russian
Default : Да
Forced : Нет

Аудио #3
Идентификатор : 4
Формат : AC-3
Формат/Информация : Audio Coding 3
Расширение режима : CM (complete main)
Параметр Endianness формата : Big
Идентификатор кодека : A_AC3
Продолжительность : 2 ч. 12 м.
Вид битрейта : Постоянный
Битрейт : 192 Кбит/сек
Каналы : 2 канала
Расположение каналов : Front: L R
Частота : 48,0 КГц
Метод сжатия : С потерями
Задержка видео : 800 мс.
Размер потока : 182 Мбайт (6%)
Язык : English
Default : Нет
Forced : Нет

Меню
00:00:00.000 : en:
00:05:17.232 : en:
00:11:56.048 : en:
00:15:56.163 : en:
00:18:48.166 : en:
00:23:33.327 : en:
00:36:35.818 : en:
00:39:24.777 : en:
00:45:29.934 : en:
00:47:23.882 : en:
00:51:41.556 : en:
00:58:26.126 : en:
01:03:12.704 : en:
01:11:51.015 : en:
01:14:30.881 : en:
01:18:37.753 : en:
01:21:58.329 : en:
01:31:21.309 : en:
01:34:01.385 : en:
01:42:17.046 : en:
01:51:03.280 : en:
01:55:34.301 : en:
01:59:56.229 : en:
02:10:12.930 : en:



Скачать Вопросы.и.ответы.Q.&.A.(Сидни.Люмет).[1990.триллер.драма.криминал.BDRip-AVC].[MVO]+[DVO].torrent без регистрации
Золото ЗОЛОТАЯ РАЗДАЧА! СКАЧАННОЕ НЕ ЗАСЧИТЫВАЕТСЯ! Золото
Дата: Зарегистрирован   [ Тип: внутренний ] Как тут cкачать?
MAGNET ссылка
MAGNET ссылка


Скачать .torrent

15 KB

Статус: проверено DHT
Скачан: торрент - 31 раз, раздача полностью - 1 раз
Размер: 2,74 GB
Оценка:  - (Голосов: 0)
Поблагодарили: 0
Поделиться ссылкой на эту раздачу с друзьями:
В контактеFacebookОдноклассникиTwitterLivejournalМой МирLiveinternet
 

 
Показать сообщения:    


Вы не можете начинать темы
Вы не можете отвечать на сообщения
Вы не можете редактировать свои сообщения
Вы не можете удалять свои сообщения
Вы не можете голосовать в опросах
Вы не можете прикреплять файлы к сообщениям
Вы можете скачивать файлы