Loading...
Error

Скачать Мориц из афишной тумбы / Moritz in der Litfaßsäule (Рольф Лозански) [1983, семейный, комедия, DVDRip] [VO (Юрий Муравский)] торрент без регистрации

 
Статистика раздачи
Размер:  1,48 GB   |    Скачан:  29 раз
Сидов:  1  [  0 KB/s  ]  
 
Автор Сообщение

Marsianka

[] 

Информация о фильме
Название: Мориц из афишной тумбы / Мориц с афиши / Необычное приключение Морица
Оригинальное название: Moritz in der Litfaßsäule
Год выхода: 1983
Жанр: семейный, комедия
Режиссер: Рольф Лозански
В ролях: Дирк Мюллер, Дитер Манн, Вальфриде Шмитт, Рольф Людвиг, Дорит Габлер, Дитмар Рихтер-Райник, Франциска Троегнер, Йёрг Панкнин, Гертрауд Крайсиг, Барбара Шницлер

О фильме:
Девятилетний Мориц – сама медлительность. Он делает всё настолько тщательно, что это становится проблемой для него и его семьи. А ещё у Морица очень много фантазий, что тоже ему мешает. Учитель математики считает, что мальчик должен учиться лучше и посылает записку отцу Морица, который, прочитав, обязан подписать её. Тогда Мориц убегает из дома и поселяется на городской площади в здоровенной круглой тумбе, сверху донизу оклеенной рекламными афишами…



Производство: ГДР / Deutsche Film (DEFA), Deutscher Fernsehfunk (DFF)
Продолжительность: 01:22:53
Перевод: любительский (одноголосый закадровый) [Юрий Муравский]

Файл
Качество: DVDRip
Формат: AVI
Видео: XviD, 720x416 (16:9), 25.000 fps, 2161 kbps, 0.289 bit/pixel
Аудио #1: русский, AC3 2.0, 48 kHz, 192 kbps
Аудио #2: немецкий, AC3 2.0, 48 kHz, 192 kbps
Формат : AVI
Формат/Информация : Audio Video Interleave
Размер файла : 1,48 Гбайт
Продолжительность : 1 ч. 22 м.
Общий поток : 2558 Кбит/сек
Программа кодирования : VirtualDubMod 1.5.10.2 (build 2540/release)
Библиотека кодирования : VirtualDubMod build 2540/release

Видео
Идентификатор : 0
Формат : MPEG-4 Visual
Профиль формата : Advanced Simple@L5
Параметр BVOP формата : 1
Параметр QPel формата : Нет
Параметр GMC формата : Без точки перехода
Параметр матрицы формата : Выборочная
Идентификатор кодека : XVID
Идентификатор кодека/Подсказка : XviD
Продолжительность : 1 ч. 22 м.
Битрейт : 2161 Кбит/сек
Ширина : 720 пикселей
Высота : 416 пикселей
Соотношение сторон : 1,731
Частота кадров : 25,000 кадров/сек
Цветовое пространство : YUV
Субдискретизация насыщенности : 4:2:0
Битовая глубина : 8 бит
Тип развёртки : Прогрессивная
Метод сжатия : С потерями
Бит/(Пиксели*Кадры) : 0.289
Размер потока : 1,25 Гбайт (84%)
Библиотека кодирования : XviD 64

Аудио #1
Идентификатор : 1
Формат : AC-3
Формат/Информация : Audio Coding 3
Расширение режима : CM (complete main)
Параметр Endianness формата : Big
Идентификатор кодека : 2000
Продолжительность : 1 ч. 22 м.
Вид битрейта : Постоянный
Битрейт : 192 Кбит/сек
Каналы : 2 канала
Расположение каналов : Front: L R
Частота : 48,0 КГц
Метод сжатия : С потерями
Размер потока : 114 Мбайт (8%)
Выравнивание : Разделение по промежуткам
Продолжительность промежутка : 40 мс. (1,00 видеокадр)
Время предзагрузки промежутка : 500 мс.
Язык : Deutsch

Аудио #2
Идентификатор : 2
Формат : AC-3
Формат/Информация : Audio Coding 3
Расширение режима : CM (complete main)
Параметр Endianness формата : Big
Идентификатор кодека : 2000
Продолжительность : 1 ч. 22 м.
Вид битрейта : Постоянный
Битрейт : 192 Кбит/сек
Каналы : 2 канала
Расположение каналов : Front: L R
Частота : 48,0 КГц
Метод сжатия : С потерями
Размер потока : 113 Мбайт (7%)
Выравнивание : Разделение по промежуткам
Продолжительность промежутка : 40 мс. (1,01 видеокадр)
Время предзагрузки промежутка : 500 мс.
Релиз от:



Скачать Мориц.из.афишной.тумбы.Moritz.in.der.Litfaßsäule.(Рольф.Лозански).[1983.семейный.комедия.DVDRip].[VO.(Юрий.Муравский)].torrent без регистрации
Золото ЗОЛОТАЯ РАЗДАЧА! СКАЧАННОЕ НЕ ЗАСЧИТЫВАЕТСЯ! Золото
Дата: Зарегистрирован   [ Тип: внутренний ] Как тут cкачать?
MAGNET ссылка
MAGNET ссылка


Скачать .torrent

16 KB

Статус: проверено DHT
Скачан: торрент - 29 раз, раздача полностью - 0 раз
Размер: 1,48 GB
Оценка:  - (Голосов: 0)
Поблагодарили: 0
Поделиться ссылкой на эту раздачу с друзьями:
В контактеFacebookОдноклассникиTwitterLivejournalМой МирLiveinternet
 

 
Показать сообщения:    


Вы не можете начинать темы
Вы не можете отвечать на сообщения
Вы не можете редактировать свои сообщения
Вы не можете удалять свои сообщения
Вы не можете голосовать в опросах
Вы не можете прикреплять файлы к сообщениям
Вы можете скачивать файлы