Loading...
Error

Скачать 1864 / 1864 (сезон 01) (Уле Борнедаль) [2014, фэнтези, драма, военный, HDTVRip] [720р] [VO (Project_Web_Money)] торрент без регистрации

 
Статистика раздачи
Размер:  7,05 GB   |    Скачан:  40 раз
Сидов:  1  [  0 KB/s  ]  
 
Автор Сообщение

МихаНЕзатор

[] 

1864 / 1864


Страна: Дания Норвегия Швеция Германия
Производство: Danmarks Radio (DR), Miso Film, TV2 Norge, TV4 Sweden, ZDF/Arte
Год выпуска: 2014
Жанр: фэнтези, драма, военный
Режиссер: Уле Борнедаль
Автор сценария: Уле Борнедаль

В ролях: Йохан Филип Асбек, Сара-Софи Бусснина, Бент Мейдинг, Дженс Сэттер-Лассен, Якоб Офтебро, Николас Бро, Сёрен Пильмарк, Эсбен Далгаард Андерсен

Описание: «1864» — это история о невинности и любви, невежестве и политической глупости. Обилие драмы в промежутке между годами красоты и ужасами войны...

Дата премьеры (мир): 12 октября 2014



Сезон: 1
Серии: 1-8 (из 8)
Продолжительность: 8х ~00:57:00
Перевод: Любительский (одноголосый, закадровый) | Project_Web_Money
Субтитры: нет

Качество: HDTVRip 720р
Формат: МКV
Видео кодек: AVC
Аудио кодек: АС3
Видео: 1280x534 (2.40:1), 25.000 fps, MPEG-4 AVC ~1 798 kbps avg, 0.105 bits/рixel
Аудио №1: 48.0 kHz, AC3 Dolby Digital, 2/0 (L,R) ch, ~192.00 kbps avg | RUS
Аудио №2: 48.0 kHz, AC3 Dolby Digital, 2/0 (L,R) ch, ~224 kbps avg | DUTCH

АНОНСЫ ПОПУЛЯРНЫХ РАЗДАЧ
General
Формат : Matroska
Версия формата : Version 2
Размер файла : 920 Мбайт
Продолжительность : 58 м.
Общий поток : 2216 Кбит/сек
Название фильма : =lord_i_74=
Дата кодирования : UTC 2014-12-04 13:21:21
Программа кодирования : mkvmerge v5.0.1 ('Es ist Sommer') built on Oct 9 2011 11:55:43
Библиотека кодирования : libebml v1.2.2 + libmatroska v1.3.0

Видео
Идентификатор : 1
Формат : AVC
Формат/Информация : Advanced Video Codec
Профиль формата : High@L4.0
Параметр CABAC формата : Да
Параметр ReFrames формата : 9 кадров
Идентификатор кодека : V_MPEG4/ISO/AVC
Продолжительность : 58 м.
Битрейт : 1798 Кбит/сек
Ширина : 1280 пикс.
Высота : 534 пикс.
Соотношение сторон : 2,40:1
Частота кадров : 25,000 кадр/сек
Цветовое пространство : YUV
Подвыборка цветности : 4:2:0
Битовая глубина : 8 бит
Тип развёртки : Прогрессивная
Бит/(Пиксели*Кадры) : 0.105
Размер потока : 729 Мбайт (79%)
Библиотека кодирования : x264 core 142 r2479 dd79a61
Настройки программы : cabac=1 / ref=9 / deblock=1:-3:-3 / analyse=0x3:0x133 / me=umh / subme=9 / psy=1 / psy_rd=1.00:0.00 / mixed_ref=1 / me_range=24 / chroma_me=1 / trellis=2 / 8x8dct=1 / cqm=0 / deadzone=21,11 / fast_pskip=0 / chroma_qp_offset=-2 / threads=6 / lookahead_threads=1 / sliced_threads=0 / nr=0 / decimate=1 / interlaced=0 / bluray_compat=0 / constrained_intra=0 / bframes=6 / b_pyramid=2 / b_adapt=2 / b_bias=0 / direct=3 / weightb=1 / open_gop=0 / weightp=2 / keyint=250 / keyint_min=25 / scenecut=40 / intra_refresh=0 / rc_lookahead=60 / rc=abr / mbtree=1 / bitrate=1798 / ratetol=1.0 / qcomp=0.60 / qpmin=0 / qpmax=69 / qpstep=4 / ip_ratio=1.40 / aq=2:1.00
Основные цвета : BT.709-5, BT.1361, IEC 61966-2-4, SMPTE RP177
Характеристики трансфера : BT.709-5, BT.1361
Коэффициенты матрицы : BT.709-5, BT.1361, IEC 61966-2-4 709, SMPTE RP177

Аудио #1
Идентификатор : 2
Формат : AC-3
Формат/Информация : Audio Coding 3
Расширение режима : CM (complete main)
Идентификатор кодека : A_AC3
Продолжительность : 58 м.
Вид битрейта : Постоянный
Битрейт : 192 Кбит/сек
Каналы : 2 канала
Расположение каналов : Front: L R
Частота : 48,0 КГц
Битовая глубина : 16 бит
Метод сжатия : С потерями
Задержка видео : -80 мс.
Размер потока : 79,7 Мбайт (9%)
Заголовок : VO Web_Money
Язык : Russian
Default : Да
Forced : Нет

Аудио #2
Идентификатор : 3
Формат : AC-3
Формат/Информация : Audio Coding 3
Расширение режима : CM (complete main)
Идентификатор кодека : A_AC3
Продолжительность : 58 м.
Вид битрейта : Постоянный
Битрейт : 224 Кбит/сек
Каналы : 2 канала
Расположение каналов : Front: L R
Частота : 48,0 КГц
Битовая глубина : 16 бит
Метод сжатия : С потерями
Размер потока : 93,0 Мбайт (10%)
Заголовок : Stereo
Язык : Dutch
Default : Нет
Forced : Нет



Скачать 1864.1864.(сезон.01).(Уле.Борнедаль).[2014.фэнтези.драма.военный.HDTVRip].[720р].[VO.(Project_Web_Money)].torrent без регистрации
Золото ЗОЛОТАЯ РАЗДАЧА! СКАЧАННОЕ НЕ ЗАСЧИТЫВАЕТСЯ! Золото
Дата: Зарегистрирован   [ Тип: внутренний ] Как тут cкачать?
MAGNET ссылка
MAGNET ссылка


Скачать .torrent

36 KB

Статус: проверено DHT
Скачан: торрент - 40 раз, раздача полностью - 6 раз
Размер: 7,05 GB
Оценка:  - (Голосов: 0)
Поблагодарили: 1
Поделиться ссылкой на эту раздачу с друзьями:
В контактеFacebookОдноклассникиTwitterLivejournalМой МирLiveinternet
 

 
Показать сообщения:    


Вы не можете начинать темы
Вы не можете отвечать на сообщения
Вы не можете редактировать свои сообщения
Вы не можете удалять свои сообщения
Вы не можете голосовать в опросах
Вы не можете прикреплять файлы к сообщениям
Вы можете скачивать файлы