Loading...
Error

Скачать А ей ни слова обо мне / Don't Tell Her It's Me (Малкольм Маубрэй) [1990, мелодрама, комедия, DVDRip-AVC] [DVO] + [AVO] (А.Михалев) торрент без регистрации

 
Статистика раздачи
Размер:  1,43 GB   |    Скачан:  31 раз
Сидов:  1  [  0 KB/s  ]  
 
Автор Сообщение

leon030982

[] 

А ей ни слова обо мне / Don't Tell Her It's Me
"Романтическая комедия о настоящей любви обманным путем"

Год выпуска: 1990
Страна: США
Жанр: мелодрама, комедия
Продолжительность: 01:42:31
Перевод 1: Профессиональный (двухголосый закадровый) HTB+
Перевод 2: Авторский (одноголосый закадровый) Алексей Михалев
Cубтитры: английские
Оригинальная аудиодорожка: английский

Режиссер: Малкольм Маубрэй

В ролях: Шелли Лонг, Стив Гуттенберг, Джейми Герц, Кайл МакЛоклен, Медкен Эмик, Кевин Сканнелл, Перри Анзилотти, Нада Деспотович, Бет Грант, Дон Худ

Описание: Художник-мультипликатор Гус Кубичек влюбляется в очень красивую женщину. В результате болезни парень остался без волос на голове, а ей, как выясняется, нужен супермужчина, о которых пишут в любовных бестселлерах. При помощи сестры Лиззи художник превращается в эдакого супермужественного голубоглазого жеребца в кожаной куртке и попадает в точку.



Качество: DVDRip-AVC
Формат: MKV
Видео: AVC, 886x466@718x466, 23.976fps, 1415kbps
Аудио #1: AC3, 48000Hz, 192kbps, 2ch DVO
Аудио #2: AC3, 48000Hz, 192kbps, 2ch AVO
Аудио #3: AC3, 48000Hz, 192kbps, 2ch ENG
Cубтитры: softsub (SRT) вшитые
General
Unique ID : 198101319491144159648518802395143182066 (0x9508ED238217AAAA95F82F5FD9A196F2)
Complete name : D:\А ей ни слова обо мне\[1990] Don't Tell Her It's Me.mkv
Format : Matroska
Format version : Version 1
File size : 1.43 GiB
Duration : 1h 42mn
Overall bit rate : 1 995 Kbps
Encoded date : UTC 2016-05-25 15:01:05
Writing application : mkvmerge v2.1.0 ('Another Place To Fall') built on Aug 19 2007 13:40:07
Writing library : libebml v0.7.7 + libmatroska v0.8.1
DURATION : 01:42:31.395000000
NUMBER_OF_FRAMES : 147486
NUMBER_OF_BYTES : 1087951506
_STATISTICS_WRITING_APP : mkvmerge v8.5.2 ('Crosses') 32bit
_STATISTICS_WRITING_DATE_UTC : 2016-05-21 13:37:17
_STATISTICS_TAGS : BPS DURATION NUMBER_OF_FRAMES NUMBER_OF_BYTES
Video
ID : 1
Format : AVC
Format/Info : Advanced Video Codec
Format profile : High@L4.1
Format settings, CABAC : Yes
Format settings, ReFrames : 9 frames
Codec ID : V_MPEG4/ISO/AVC
Duration : 1h 42mn
Bit rate : 1 415 Kbps
Width : 718 pixels
Height : 466 pixels
Display aspect ratio : 1.901
Original display aspect ratio : 3:2
Frame rate : 23.976 fps
Color space : YUV
Chroma subsampling : 4:2:0
Bit depth : 8 bits
Scan type : Progressive
Bits/(Pixel*Frame) : 0.176
Stream size : 1 011 MiB (69%)
Title : А ей ни слова обо мне
Writing library : x264 core 148 r2638 7599210
Encoding settings : cabac=1 / ref=9 / deblock=1:-2:-1 / analyse=0x3:0x133 / me=umh / subme=9 / psy=1 / psy_rd=1.00:0.00 / mixed_ref=1 / me_range=24 / chroma_me=1 / trellis=2 / 8x8dct=1 / cqm=0 / deadzone=21,11 / fast_pskip=1 / chroma_qp_offset=-2 / threads=6 / lookahead_threads=1 / sliced_threads=0 / nr=0 / decimate=1 / interlaced=0 / bluray_compat=0 / constrained_intra=0 / bframes=8 / b_pyramid=2 / b_adapt=2 / b_bias=0 / direct=3 / weightb=1 / open_gop=0 / weightp=2 / keyint=240 / keyint_min=23 / scenecut=40 / intra_refresh=0 / rc_lookahead=60 / rc=2pass / mbtree=1 / bitrate=1415 / ratetol=1.0 / qcomp=0.60 / qpmin=0 / qpmax=69 / qpstep=4 / cplxblur=20.0 / qblur=0.5 / vbv_maxrate=62500 / vbv_bufsize=78125 / nal_hrd=none / filler=0 / ip_ratio=1.40 / aq=1:1.00 / zones=142528,147485,q=40
Language : English
Audio #1
ID : 2
Format : AC-3
Format/Info : Audio Coding 3
Mode extension : CM (complete main)
Codec ID : A_AC3
Duration : 1h 42mn
Bit rate mode : Constant
Bit rate : 192 Kbps
Channel(s) : 2 channels
Channel positions : Front: L R
Sampling rate : 48.0 KHz
Bit depth : 16 bits
Compression mode : Lossy
Stream size : 141 MiB (10%)
Title : MVO
Language : Russian
Audio #2
ID : 3
Format : AC-3
Format/Info : Audio Coding 3
Format profile : Dolby Digital
Mode extension : CM (complete main)
Codec ID : A_AC3
Duration : 1h 42mn
Bit rate mode : Constant
Bit rate : 192 Kbps
Channel(s) : 2 channels
Channel positions : Front: L R
Sampling rate : 48.0 KHz
Bit depth : 16 bits
Compression mode : Lossy
Stream size : 141 MiB (10%)
Title : AVO
Language : Russian
Audio #3
ID : 4
Format : AC-3
Format/Info : Audio Coding 3
Format profile : Dolby Digital
Mode extension : CM (complete main)
Codec ID : A_AC3
Duration : 1h 42mn
Bit rate mode : Constant
Bit rate : 192 Kbps
Channel(s) : 2 channels
Channel positions : Front: L R
Sampling rate : 48.0 KHz
Bit depth : 16 bits
Compression mode : Lossy
Stream size : 141 MiB (10%)
Title : Original
Language : English
Text
ID : 5
Format : UTF-8
Codec ID : S_TEXT/UTF8
Codec ID/Info : UTF-8 Plain Text
Title : SRT
Language : English



Скачать А.ей.ни.слова.обо.мне.Don't.Tell.Her.It's.Me.(Малкольм.Маубрэй).[1990.мелодрама.комедия.DVDRip-AVC].[DVO].+.[AVO].(А.Михалев).torrent без регистрации
Золото ЗОЛОТАЯ РАЗДАЧА! СКАЧАННОЕ НЕ ЗАСЧИТЫВАЕТСЯ! Золото
Дата: Зарегистрирован   [ Тип: внутренний ] Как тут cкачать?
MAGNET ссылка
MAGNET ссылка


Скачать .torrent

15 KB

Статус: проверено DHT
Скачан: торрент - 31 раз, раздача полностью - 1 раз
Размер: 1,43 GB
Оценка:  - (Голосов: 0)
Поблагодарили: 1
Поделиться ссылкой на эту раздачу с друзьями:
В контактеFacebookОдноклассникиTwitterLivejournalМой МирLiveinternet
 

 
Показать сообщения:    


Вы не можете начинать темы
Вы не можете отвечать на сообщения
Вы не можете редактировать свои сообщения
Вы не можете удалять свои сообщения
Вы не можете голосовать в опросах
Вы не можете прикреплять файлы к сообщениям
Вы можете скачивать файлы