Loading...
Error

Скачать Подставное тело / Body Double (Брайан Де Пальма) [1984, триллер, криминал, детектив, НDRip] [DVO]+[MVO] торрент без регистрации

 
Статистика раздачи
Размер:  1,46 GB   |    Скачан:  32 раза
Сидов:  1  [  0 KB/s  ]  
 
Автор Сообщение

Marsianka

[] 

Подставное тело / Body Double

Страна: США
Производство: Columbia Pictures Corporation, Delphi II
Год выпуска: 1984
Жанр: триллер, криминал, детектив
Продолжительность: 01:54:11

Режиссер: Брайан Де Пальма
Авторы сценария: Брайан Де Пальма, Роберт Дж. Эврек

В ролях: Крейг Уоссон, Мелани Гриффит, Грегг Генри, Дебора Шелтон, Гай Бойд, Деннис Франц, Дэвид Хэскелл, Ребекка Стэнли

Описание: Актер Джейк снимается на вторых ролях в фильмах ужасов про вампиров. Однажды он возвращается домой после съемок фильма и обнаруживает свою подружку с другим мужчиной. Джейк вынужден искать себе новое жилье. Его знакомый Фрэнк, тоже актер, предлагает Джейку пожить у него, пока он будет в отъезде, а заодно и присмотреть за домом. Чтобы Джейк не скучал в одиночестве, Фрэнк рассказывает ему о маленьком «домашнем» развлечении. В здании напротив живет «любимая» соседка Фрэнка, сексапильная красавица Глория, которая каждый вечер раздевается у незанавешенного и хорошо освещенного окна. Увидев бесплатный стриптиз своими глазами, Джейк мечтает познакомиться лично с прекрасной Глорией. Знакомство происходит при необычных обстоятельствах, но в один из вечеров Джейк вместо полюбившегося шоу видит через окно, как Глорию убивают… Но это еще не все. Кто-то нанимает актрису, чтобы она заменила Глорию и продолжила импровизированное шоу «за стеклом»...



Перевод: Профессиональный (двухголосый) | ОРТ + Профессиональный (многоголосый) | СТС
Субтитры: нет

Качество: НDRip
Формат: АVI
Видео кодек: XviD
Аудио кодек: АС3
Видео: 720x384 (1.85:1), 23.976 fps, XviD 65 ~1 426 kbps avg, 0.215 bit/pixel
Аудио №1: 48 kHz, AC3 Dolby Digital, 2/0 (L,R) ch, ~192 kbps | DVO
Аудио №2: 48 kHz, AC3 Dolby Digital, 2/0 (L,R) ch, ~192 kbps | MVO
Бюджет: $10 000 000
Дата премьеры (мир): 26 октября 1984
General
Complete name : Подставное тело (ОРТ + СТС).avi
Format : AVI
Format/Info : Audio Video Interleave
File size : 1.46 GiB
Duration : 1h 54mn
Overall bit rate : 1 824 Kbps
Movie name : Body Double.1984.HDRip rip by Rulya74
Writing application : VirtualDubMod 1.5.10.3 | (build 2550/release)
Writing library : VirtualDubMod build 2550/release

Video
ID : 0
Format : MPEG-4 Visual
Format profile : Advanced Simple@L5
Format settings, BVOP : 1
Format settings, QPel : No
Format settings, GMC : No warppoints
Format settings, Matrix : Custom
Codec ID : XVID
Codec ID/Hint : XviD
Duration : 1h 54mn
Bit rate : 1 426 Kbps
Width : 720 pixels
Height : 384 pixels
Display aspect ratio : 1.85:1
Frame rate : 23.976 (24000/1001) fps
Color space : YUV
Chroma subsampling : 4:2:0
Bit depth : 8 bits
Scan type : Progressive
Compression mode : Lossy
Bits/(Pixel*Frame) : 0.215
Stream size : 1.14 GiB (78%)
Writing library : XviD 65

Audio #1
ID : 1
Format : AC-3
Format/Info : Audio Coding 3
Mode extension : CM (complete main)
Format settings, Endianness : Big
Codec ID : 2000
Duration : 1h 54mn
Bit rate mode : Constant
Bit rate : 192 Kbps
Channel(s) : 2 channels
Channel positions : Front: L R
Sampling rate : 48.0 KHz
Frame rate : 31.250 fps (1536 spf)
Compression mode : Lossy
Stream size : 157 MiB (11%)
Alignment : Split accross interleaves
Interleave, duration : 42 ms (1.00 video frame)
Interleave, preload duratio : 500 ms
Title : ОРТ/ТВ3/Первый канал - Андрей Казанцев и Любовь Германова

Audio #2
ID : 2
Format : AC-3
Format/Info : Audio Coding 3
Mode extension : CM (complete main)
Format settings, Endianness : Big
Codec ID : 2000
Duration : 1h 54mn
Bit rate mode : Constant
Bit rate : 192 Kbps
Channel(s) : 2 channels
Channel positions : Front: L R
Sampling rate : 48.0 KHz
Frame rate : 31.250 fps (1536 spf)
Compression mode : Lossy
Stream size : 157 MiB (11%)
Alignment : Split accross interleaves
Interleave, duration : 42 ms (1.00 video frame)
Interleave, preload duratio : 500 ms
Title : СТС - Сергей Чекан, Леонид Белозорович и Людмила Шувалова



Скачать Подставное.тело.Body.Double.(Брайан.Де.Пальма).[1984.триллер.криминал.детектив.НDRip].[DVO]+[MVO].torrent без регистрации
Золото ЗОЛОТАЯ РАЗДАЧА! СКАЧАННОЕ НЕ ЗАСЧИТЫВАЕТСЯ! Золото
Дата: Зарегистрирован   [ Тип: внутренний ] Как тут cкачать?
MAGNET ссылка
MAGNET ссылка


Скачать .torrent

15 KB

Статус: проверено DHT
Скачан: торрент - 32 раз, раздача полностью - 5 раз
Размер: 1,46 GB
Оценка:  - (Голосов: 0)
Поблагодарили: 0
Поделиться ссылкой на эту раздачу с друзьями:
В контактеFacebookОдноклассникиTwitterLivejournalМой МирLiveinternet
 

 
Показать сообщения:    


Вы не можете начинать темы
Вы не можете отвечать на сообщения
Вы не можете редактировать свои сообщения
Вы не можете удалять свои сообщения
Вы не можете голосовать в опросах
Вы не можете прикреплять файлы к сообщениям
Вы можете скачивать файлы