Loading...
Error

Скачать Уэйуорд Пайнс / Wayward Pines (сезон 02) (Джефф Т. Томас) [2016, драма, триллер, мистика, WEB-DL] [720p] [MVO (OMSKBIRD records)]+[Eng]+[Sub Rus, Eng] торрент без регистрации

 
Статистика раздачи
Размер:  14,59 GB   |    Скачан:  570 раз
Сидов:  1  [  0 KB/s  ]  
 
Автор Сообщение

МихаНЕзатор

[] 

Информация о фильме
Название: Уэйуорд Пайнс / Сосны
Оригинальное название: Wayward Pines
Год выхода: 2016
Жанр: драма, триллер, мистика
Режиссер: Джефф Т. Томас / Jeff T. Thomas

В ролях: Джейсон Патрик, Нимрат Каур, Джош Хельман, Том Стивенс, Кейси Рол, Хоуп Дэвис и др.

О фильме: События новой главы шоу начнут развиваться с того момента, когда в Уэйуорд Пайнс вспыхнет бунт против диктатуры Первого поколения. Одним из тех, кто окажется в самой гуще событий, будет герой — Ксандер. Ксандер — уверенный в себе и весьма обаятельный парень, который пытается изнутри разрушить установленный в городе строй. Кроме того, юноша находится не в ладах с местной правящей верхушкой..



Релиз от: Grandfather61

Страна: CША
Продолжительность: ~00:43:00 серия
Перевод:
Профессиональный (многоголосый закадровый) OMSKBIRD records

Файл
Кодек: AVC/H.264
Качество: WEB-DL 720p
Видео: 1280x720 (1.778), 23.976 fps, ~4000 kbps avg, 0.183 bit/pixel
Звук:
Аудио rus: AC-3, 48 KHz, 6 ch, 384 kbps | OMSKBIRD records
Аудио eng: AC-3, 48 KHz, 6 ch, 384 kbps | original
Субтитры: русские (OmskBird), английские

АНОНСЫ ПОПУЛЯРНЫХ РАЗДАЧ


Торрент обновлён, добавлена 6-я серия!

01. Enemy Lines
02. Blood Harvest
03. Once Upon a Time in Wayward Pines
04. Exit Strategy
05. Sound The Alarm
06. City Upon A Hill
07. Time Will Tell
08. Pass Judgment
09. Walcott Prep
10. Bedtime Story

Релиз-группа: OMSKBIRD records
Релиз подготовил:Grandfather61
Роли озвучивали: Андрей Астров, Павел Ярощик, Семен Ващенко, Ирина Воронова
Перевод: Никита Коваль
Звукорежиссер: Павел Квентов
Постер: Ксения Просветова
Работа со звуком и субтитрами: Юрий Гамов

General
Unique ID : 251804986321480735651419986071206427262 (0xBD6FE0572DFD3094AF42DF4F698AFA7E)
Complete name : G:FilmsWayward.Pines.S02.720p.OmskBirdWayward.Pines.S02E01.720p.WEB-DL.OmskBird.mkv
Format : Matroska
Format version : Version 4 / Version 2
File size : 1.51 GiB
Duration : 44mn 51s
Overall bit rate : 4 807 Kbps
Encoded date : UTC 2016-05-27 05:40:30
Writing application : mkvmerge v9.1.0 ('Little Earthquakes') 64bit
Writing library : libebml v1.3.3 + libmatroska v1.4.4

Video
ID : 1
Format : AVC
Format/Info : Advanced Video Codec
Format profile : High@L3.1
Format settings, CABAC : No
Format settings, ReFrames : 2 frames
Codec ID : V_MPEG4/ISO/AVC
Duration : 44mn 51s
Bit rate : 4 036 Kbps
Width : 1 280 pixels
Height : 720 pixels
Display aspect ratio : 16:9
Frame rate mode : Constant
Frame rate : 23.976 (24000/1001) fps
Color space : YUV
Chroma subsampling : 4:2:0
Bit depth : 8 bits
Scan type : Progressive
Bits/(Pixel*Frame) : 0.183
Stream size : 1.26 GiB (84%)
Language : English
Default : Yes
Forced : No
Color range : Limited
Color primaries : BT.709
Transfer characteristics : BT.709
Matrix coefficients : BT.709

Audio #1
ID : 2
Format : AC-3
Format/Info : Audio Coding 3
Mode extension : CM (complete main)
Format settings, Endianness : Big
Codec ID : A_AC3
Duration : 44mn 51s
Bit rate mode : Constant
Bit rate : 384 Kbps
Channel(s) : 6 channels
Channel positions : Front: L C R, Side: L R, LFE
Sampling rate : 48.0 KHz
Frame rate : 31.250 fps (1536 spf)
Compression mode : Lossy
Stream size : 123 MiB (8%)
Title : OmskBird 5.1
Language : Russian
Default : Yes
Forced : No

Audio #2
ID : 3
Format : AC-3
Format/Info : Audio Coding 3
Mode extension : CM (complete main)
Format settings, Endianness : Big
Codec ID : A_AC3
Duration : 44mn 51s
Bit rate mode : Constant
Bit rate : 384 Kbps
Channel(s) : 6 channels
Channel positions : Front: L C R, Side: L R, LFE
Sampling rate : 48.0 KHz
Frame rate : 31.250 fps (1536 spf)
Compression mode : Lossy
Stream size : 123 MiB (8%)
Title : original 5.1
Language : English
Default : No
Forced : No

Text #1
ID : 4
Format : UTF-8
Codec ID : S_TEXT/UTF8
Codec ID/Info : UTF-8 Plain Text
Duration : 42mn 40s
Bit rate : 76 bps
Count of elements : 565
Stream size : 23.9 KiB (0%)
Title : rus (OmskBird)
Language : Russian
Default : No
Forced : No

Text #2
ID : 5
Format : UTF-8
Codec ID : S_TEXT/UTF8
Codec ID/Info : UTF-8 Plain Text
Duration : 44mn 49s
Bit rate : 52 bps
Count of elements : 601
Stream size : 17.3 KiB (0%)
Title : CC
Language : English
Default : No
Forced : No



Скачать Уэйуорд.Пайнс.Wayward.Pines.(сезон.02).(Джефф.Т.Томас).[2016.драма.триллер.мистика.WEB-DL].[720p].[MVO.(OMSKBIRD.records)]+[Eng]+[Sub.Rus.Eng].torrent без регистрации
Золото ЗОЛОТАЯ РАЗДАЧА! СКАЧАННОЕ НЕ ЗАСЧИТЫВАЕТСЯ! Золото
Дата: Зарегистрирован   [ Тип: внутренний ] Как тут cкачать?
MAGNET ссылка
MAGNET ссылка


Скачать .torrent

38 KB

Статус: проверено DHT
Скачан: торрент - 570 раз, раздача полностью - 0 раз
Размер: 14,59 GB
Оценка:  - (Голосов: 0)
Поблагодарили: 0
Поделиться ссылкой на эту раздачу с друзьями:
В контактеFacebookОдноклассникиTwitterLivejournalМой МирLiveinternet
 

 
Показать сообщения:    


Вы не можете начинать темы
Вы не можете отвечать на сообщения
Вы не можете редактировать свои сообщения
Вы не можете удалять свои сообщения
Вы не можете голосовать в опросах
Вы не можете прикреплять файлы к сообщениям
Вы можете скачивать файлы