Loading...
Error

Скачать Уэйуорд Пайнс / Wayward Pines (сезон 02) (Джефф Т. Томас) [2016, драма, триллер, мистика, WEB-DLRip] [MVO (OMSKBIRD records)]+[Eng]+[Sub Rus, Eng] торрент без регистрации

 
Статистика раздачи
Размер:  9,26 GB   |    Скачан:  562 раза
Сидов:  1  [  0 KB/s  ]  
 
Автор Сообщение

МихаНЕзатор

[] 

Информация о фильме
Название: Уэйуорд Пайнс / Сосны
Оригинальное название: Wayward Pines
Год выхода: 2016
Жанр: драма, триллер, мистика
Режиссер: Джефф Т. Томас / Jeff T. Thomas

В ролях: Джейсон Патрик, Нимрат Каур, Джош Хельман, Том Стивенс, Кейси Рол, Хоуп Дэвис и др.

О фильме: События новой главы шоу начнут развиваться с того момента, когда в Уэйуорд Пайнс вспыхнет бунт против диктатуры Первого поколения. Одним из тех, кто окажется в самой гуще событий, будет герой — Ксандер. Ксандер — уверенный в себе и весьма обаятельный парень, который пытается изнутри разрушить установленный в городе строй. Кроме того, юноша находится не в ладах с местной правящей верхушкой..



Релиз от: Grandfather61

Страна: CША
Продолжительность: ~00:43:00 серия
Перевод:
Профессиональный (многоголосый закадровый) OMSKBIRD records

Файл
Кодек: XviD
Качество: WEB-DLRip
Видео: 720x400 (1.80:1), 23.976 fps, XviD build 73 ~2480 kbps avg, 0.36 bit/pixel
Звук:
Аудио rus: AC-3, 48 KHz, 6 ch, 384 kbps | OMSKBIRD records
Аудио eng: AC-3, 48 KHz, 6 ch, 384 kbps | original
Субтитры: русские (OmskBird), английские

АНОНСЫ ПОПУЛЯРНЫХ РАЗДАЧ


Торрент обновлён, добавлена 10-я серия!

01. Enemy Lines
02. Blood Harvest
03. Once Upon a Time in Wayward Pines
04. Exit Strategy
05. Sound The Alarm
06. City Upon A Hill
07. Time Will Tell
08. Pass Judgment
09. Walcott Prep
10. Bedtime Story

Релиз-группа: OMSKBIRD records
Релиз подготовил:Grandfather61
Роли озвучивали: Андрей Астров, Павел Ярощик, Семен Ващенко, Ирина Воронова
Перевод: Никита Коваль
Звукорежиссер: Павел Квентов
Постер: Ксения Просветова
Работа со звуком и субтитрами: Юрий Гамов

General
Complete name : G:FilmsWayward.Pines.S02.400p.OmskBirdWayward.Pines.S02E01.WEB-DLRip.OmskBird.avi
Format : AVI
Format/Info : Audio Video Interleave
File size : 1.02 GiB
Duration : 44mn 51s
Overall bit rate : 3 263 Kbps
Writing application : VirtualDubMod 1.5.10.3 (build 2550/release)
Writing library : VirtualDubMod build 2550/release

Video
ID : 0
Format : MPEG-4 Visual
Format profile : Advanced Simple@L5
Format settings, BVOP : 1
Format settings, QPel : No
Format settings, GMC : No warppoints
Format settings, Matrix : Default (MPEG)
Codec ID : XVID
Codec ID/Hint : XviD
Duration : 44mn 51s
Bit rate : 2 481 Kbps
Width : 720 pixels
Height : 400 pixels
Display aspect ratio : 16:9
Frame rate : 23.976 (23976/1000) fps
Color space : YUV
Chroma subsampling : 4:2:0
Bit depth : 8 bits
Scan type : Progressive
Compression mode : Lossy
Bits/(Pixel*Frame) : 0.359
Stream size : 796 MiB (76%)
Writing library : XviD 73

Audio #1
ID : 1
Format : AC-3
Format/Info : Audio Coding 3
Mode extension : CM (complete main)
Format settings, Endianness : Big
Codec ID : 2000
Duration : 44mn 51s
Bit rate mode : Constant
Bit rate : 384 Kbps
Channel(s) : 6 channels
Channel positions : Front: L C R, Side: L R, LFE
Sampling rate : 48.0 KHz
Frame rate : 31.250 fps (1536 spf)
Compression mode : Lossy
Stream size : 123 MiB (12%)
Alignment : Split accross interleaves
Interleave, duration : 42 ms (1.00 video frame)
Interleave, preload duratio : 500 ms

Audio #2
ID : 2
Format : AC-3
Format/Info : Audio Coding 3
Mode extension : CM (complete main)
Format settings, Endianness : Big
Codec ID : 2000
Duration : 44mn 51s
Bit rate mode : Constant
Bit rate : 384 Kbps
Channel(s) : 6 channels
Channel positions : Front: L C R, Side: L R, LFE
Sampling rate : 48.0 KHz
Frame rate : 31.250 fps (1536 spf)
Compression mode : Lossy
Stream size : 123 MiB (12%)
Alignment : Split accross interleaves
Interleave, duration : 42 ms (1.00 video frame)
Interleave, preload duratio : 500 ms



Скачать Уэйуорд.Пайнс.Wayward.Pines.(сезон.02).(Джефф.Т.Томас).[2016.драма.триллер.мистика.WEB-DLRip].[MVO.(OMSKBIRD.records)]+[Eng]+[Sub.Rus.Eng].torrent без регистрации
Золото ЗОЛОТАЯ РАЗДАЧА! СКАЧАННОЕ НЕ ЗАСЧИТЫВАЕТСЯ! Золото
Дата: Зарегистрирован   [ Тип: внутренний ] Как тут cкачать?
MAGNET ссылка
MAGNET ссылка


Скачать .torrent

27 KB

Статус: проверено DHT
Скачан: торрент - 562 раз, раздача полностью - 0 раз
Размер: 9,26 GB
Оценка:  - (Голосов: 0)
Поблагодарили: 1
Поделиться ссылкой на эту раздачу с друзьями:
В контактеFacebookОдноклассникиTwitterLivejournalМой МирLiveinternet
 

 
Показать сообщения:    


Вы не можете начинать темы
Вы не можете отвечать на сообщения
Вы не можете редактировать свои сообщения
Вы не можете удалять свои сообщения
Вы не можете голосовать в опросах
Вы не можете прикреплять файлы к сообщениям
Вы можете скачивать файлы