Loading...
Error

Скачать 80 минут / 80 Minutes (Томас Ян) [2008, боевик, триллер, DVDRip] [Лицензия] [DVO]+[Оригинал] торрент без регистрации

 
Статистика раздачи
Размер:  1,46 GB   |    Скачан:  37 раз
Сидов:  1  [  0 KB/s  ]  
 
Автор Сообщение

Marsianka

[] 

Информация о фильме
Название: 80 минут
Оригинальное название: 80 Minutes
Год выхода: 2008
Жанр: боевик, триллер
Режиссёр: Томас Ян
В ролях: Гэбриел Манн, Натали Авелон, Джошуа Даллас, Макс Урлахер, Йоханнес Брэндрап, Эксел Ведекинд, Ксения Сиберг

О фильме:
День рождения - праздник? Только не для Алекса. Вместо обещанного торта от любимой девушки Моны, Алекс получает дозу смертельного яда от мафиозного дельца Вальтера. Таким жестоким путем Вальтер потребовал вернуть ему долг, и теперь у Алекса остается всего лишь 80 минут, чтобы достать деньги и спасти себе жизнь, получив противоядие! Ночная гонка началась - любовь, предательство, катастрофы, убийства. 80 минут жизни и никаких шансов.



Страна: Германия
Студия: Zeitsprung Entertainment
Продолжительность: 01:28:45
Перевод: Профессиональный двухголосый
Оригинальная аудио-дорожка: Английская

Файл
Кодек: XviD
Качество: DVDRip [Исходник: DVD-9]
Видео: XviD, 704x304 (2.35:1), 1900 Кбит/с, 25 кадр/с
Аудио: Русский, Dolby AC3, 48000 Гц, 448 Кбит/с, 6 каналов (5.1) - DVO
Субтитры: Нет



Автор рипа - ivandubskoj

General
Complete name : 80.minut.2008.DVDRip.avi
Format : AVI
Format/Info : Audio Video Interleave
File size : 1.46 GiB
Duration : 1h 28mn
Overall bit rate : 2 356 Kbps
Movie name : 80 минут / 80 Minutes (2008) DVDRip
Genre : Боевик, триллер, приключения
Recorded date : 22.09.2014
Writing application : VirtualDubMod 1.5.10.3 | www.virtualdub-fr.org || (build 2550/release)
Writing library : VirtualDubMod build 2550/release
Copyright : rip by ivandubskoj

Video
ID : 0
Format : MPEG-4 Visual
Format profile : Advanced Simple@L5
Format settings, BVOP : 1
Format settings, QPel : No
Format settings, GMC : No warppoints
Format settings, Matrix : Custom
Codec ID : XVID
Codec ID/Hint : XviD
Duration : 1h 28mn
Bit rate : 1 900 Kbps
Width : 704 pixels
Height : 304 pixels
Display aspect ratio : 2.35:1
Frame rate : 25.000 fps
Color space : YUV
Chroma subsampling : 4:2:0
Bit depth : 8 bits
Scan type : Progressive
Compression mode : Lossy
Bits/(Pixel*Frame) : 0.355
Stream size : 1.18 GiB (81%)
Writing library : XviD 73

Audio
ID : 1
Format : AC-3
Format/Info : Audio Coding 3
Mode extension : CM (complete main)
Format settings, Endianness : Big
Codec ID : 2000
Duration : 1h 28mn
Bit rate mode : Constant
Bit rate : 448 Kbps
Channel(s) : 6 channels
Channel positions : Front: L C R, Side: L R, LFE
Sampling rate : 48.0 KHz
Bit depth : 16 bits
Compression mode : Lossy
Stream size : 284 MiB (19%)
Alignment : Split accross interleaves
Interleave, duration : 64 ms (1.60 video frames)
Interleave, preload duration : 500 ms
Title : Russian [DVO]



Скачать 80.минут.80.Minutes.(Томас.Ян).[2008.боевик.триллер.DVDRip].[Лицензия].[DVO]+[Оригинал].torrent без регистрации
Золото ЗОЛОТАЯ РАЗДАЧА! СКАЧАННОЕ НЕ ЗАСЧИТЫВАЕТСЯ! Золото
Дата: Зарегистрирован   [ Тип: внутренний ] Как тут cкачать?
MAGNET ссылка
MAGNET ссылка


Скачать .torrent

15 KB

Статус: проверено DHT
Скачан: торрент - 37 раз, раздача полностью - 4 раз
Размер: 1,46 GB
Оценка:  - (Голосов: 0)
Поблагодарили: 0
Поделиться ссылкой на эту раздачу с друзьями:
В контактеFacebookОдноклассникиTwitterLivejournalМой МирLiveinternet
 

 
Показать сообщения:    


Вы не можете начинать темы
Вы не можете отвечать на сообщения
Вы не можете редактировать свои сообщения
Вы не можете удалять свои сообщения
Вы не можете голосовать в опросах
Вы не можете прикреплять файлы к сообщениям
Вы можете скачивать файлы