Loading...
Error

Скачать Дядюшка Бак / Дядя Бак / Uncle Buck (Джон Хьюз) [1989, комедия, драма, HDRip] [Dub] торрент без регистрации

 
Статистика раздачи
Размер:  1,46 GB   |    Скачан:  31 раз
Сидов:  12  [  0 KB/s  ]  
 
Автор Сообщение

Marsianka

[] 

Дядюшка Бак / Дядя Бак / Uncle Buck
Год выпуска: 1989
Страна: США
Жанр: комедия, драма
Продолжительность: 01:39:45
Перевод: Профессиональный (дублированный)
Русские субтитры: нет

Режиссер: Джон Хьюз / John Hughes

В ролях: Джон Кэнди, Джин Луиза Келли, Габи Хоффманн, Маколей Калкин, Эми Мэдиган, Элейн Бромка, Гэррет М. Браун, Лори Меткаф, Джей Андервуд, Брайан Тарантина
Описание: Ленивого, добродушного дядюшку-холостяка просят позаботиться о племянниках на время семейного кризиса их родителей. К дяде Баку те обратились от отчаяния: больше оставить детей не с кем. Но немного везения, много любви, и дядя Бак сумеет всех удивить.



Качество: HDRip
Формат: AVI
Видео кодек: XviD
Аудио кодек: AC3
Видео: 704x384 (1.83:1), 23.976 fps, XviD build 73 ~1896 kbps avg, 0.29 bit/pixel
Аудио: 48 kHz, AC3 Dolby Digital, 2/0 (L,R) ch, ~192 kbps
Раздача от:
D:Мои рипыUncle.Buck.1989.HDRip.dexter_lex.avi
General
Complete name : D:Мои рипыUncle.Buck.1989.HDRip.dexter_lex.avi
Format : AVI
Format/Info : Audio Video Interleave
File size : 1.46 GiB
Duration : 1h 39mn
Overall bit rate : 2 098 Kbps
Writing application : VirtualDubMod 1.5.10.3 | www.virtualdub-fr.org || (build 2550/release)
Writing library : VirtualDubMod build 2550/release
Video #0
ID : 0
Format : MPEG-4 Visual
Format profile : Advanced Simple@L5
Format settings, BVOP : 1
Format settings, QPel : No
Format settings, GMC : No warppoints
Format settings, Matrix : Custom
Codec ID : XVID
Codec ID/Hint : XviD
Duration : 1h 39mn
Bit rate : 1 897 Kbps
Width : 704 pixels
Height : 384 pixels
Display aspect ratio : 16:9
Frame rate : 23.976 fps
Color space : YUV
Chroma subsampling : 4:2:0
Bit depth : 8 bits
Scan type : Progressive
Compression mode : Lossy
Bits/(Pixel*Frame) : 0.293
Stream size : 1.32 GiB (90%)
Writing library : XviD 73
Audio #1
ID : 1
Format : AC-3
Format/Info : Audio Coding 3
Mode extension : CM (complete main)
Codec ID : 2000
Duration : 1h 39mn
Bit rate mode : Constant
Bit rate : 192 Kbps
Channel(s) : 2 channels
Channel positions : Front: L R
Sampling rate : 48.0 KHz
Bit depth : 16 bits
Compression mode : Lossy
Stream size : 137 MiB (9%)
Alignment : Split accross interleaves
Interleave, duration : 42 ms (1.00 video frame)
Interleave, preload duration : 500 ms



Скачать Дядюшка.Бак.Дядя.Бак.Uncle.Buck.(Джон.Хьюз).[1989.комедия.драма.HDRip].[Dub].torrent без регистрации
Золото ЗОЛОТАЯ РАЗДАЧА! СКАЧАННОЕ НЕ ЗАСЧИТЫВАЕТСЯ! Золото
Дата: Зарегистрирован   [ Тип: внешний ] Как тут cкачать?
MAGNET ссылка
MAGNET ссылка


Скачать .torrent

15 KB

Статус: проверено DHT
Скачан: торрент - 31 раз, раздача полностью - 29 раз
Размер: 1,46 GB
Оценка:  - (Голосов: 0)
Поблагодарили: 1
Поделиться ссылкой на эту раздачу с друзьями:
В контактеFacebookОдноклассникиTwitterLivejournalМой МирLiveinternet
 

 
Показать сообщения:    


Вы не можете начинать темы
Вы не можете отвечать на сообщения
Вы не можете редактировать свои сообщения
Вы не можете удалять свои сообщения
Вы не можете голосовать в опросах
Вы не можете прикреплять файлы к сообщениям
Вы можете скачивать файлы