Loading...
Error

Скачать Иллюзия полета / Flightplan (Роберт Швентке) [2005, боевик, триллер, драма, детектив, HDRip-AVC] [Dub]+[Оригинал]+[Sub]x2 торрент без регистрации

 
Статистика раздачи
Размер:  1,46 GB   |    Скачан:  50 раз
Сидов:  1  [  0 KB/s  ]  
 
Автор Сообщение

Marsianka

[] 

Информация о фильме
Название: Иллюзия полета
Оригинальное название: Flightplan
Год выхода: 2005
Жанр: боевик, триллер, драма, детектив
Режиссер: Роберт Швентке
В ролях: Джоди Фостер, Питер Сарсгаард, Шон Бин, Кэйт Бихэн, Майкл Ирби, Ассаф Коэн, Эрика Кристенсен, Шэйн Эделман, Мэри Галлахер, Джудит Скотт, Форрест Лэндис

О фильме: Во время авиарейса Берлин-Нью-Йорк, выполняемого сверхсовременным «Боингом-747», у Кайл Пратт неожиданно бесследно пропадает 6-летняя дочь Джулия. Переживая эмоциональный стресс после безвременной кончины мужа, Кайл отчаянно пытается доказать свою вменяемость не верящим ей членам экипажа и пассажирам. Однако ситуация выглядит настолько абсурдной и фантастичной, что она уже сама начинает сомневаться в адекватности своего восприятия реальности.

К тому же факты свидетельствуют о том, что Джулии вообще не было на борту самолета. Понимая, что разгадывать эту тайну и спасать свою дочь ей придется в одиночку, Кайл решает целиком и полностью положиться на свой ум и смекалку.



Страна: США
Продолжительность: 01:38:02
Перевод: Профессиональный (полное дублирование)+ оригинал

Файл
Кодек: x264
Качество: HDRip-AVC [BDRip 1080p]
Видео: 1008х428 (2.36:1), ~1364 kbps, 23.976 fps, 0.132 bpp
Аудио 1: 48 kHz, AC3 Dolby Digital, 3/2 (L,C,R,l,r) + LFE ch, 384 kbps (Дубляж)
Аудио 2: 48 kHz, AC3 Dolby Digital, 3/2 (L,C,R,l,r) + LFE ch, 384 kbps (Оригинал)
Субтитры: русские (полные, форсированные), английские
General
Unique ID : 224153921617781541510614943607646814755 (0xA8A279984287E33EA53BB77C81078223)
Complete name :Illusiya_poleta_(2005).HDRip-AVC.Dub.Eng.Sub_[All.Films][RG].mkv
Format : Matroska
Format version : Version 4 / Version 2
File size : 1.46 GiB
Duration : 1h 38mn
Overall bit rate : 2 135 Kbps
Movie name : Иллюзия полета / Flightplan (2005)
Encoded date : UTC 2015-06-18 14:35:23
Writing application : mkvmerge v7.5.0 ('Glass Culture') 32bit built on Jan 10 2015 09:41:31
Writing library : libebml v1.3.1 + libmatroska v1.4.2
DURATION : 01:38:02.880000000
NUMBER_OF_FRAMES : 183840
NUMBER_OF_BYTES : 282378240
_STATISTICS_WRITING_APP : mkvmerge v7.5.0 ('Glass Culture') 32bit built on Jan 10 2015 09:41:31
_STATISTICS_WRITING_DATE_UT : 2015-06-18 14:35:23
_STATISTICS_TAGS : BPS DURATION NUMBER_OF_FRAMES NUMBER_OF_BYTES

Video
ID : 1
Format : AVC
Format/Info : Advanced Video Codec
Format profile : High@L4.1
Format settings, CABAC : Yes
Format settings, ReFrames : 10 frames
Codec ID : V_MPEG4/ISO/AVC
Duration : 1h 38mn
Bit rate : 1 365 Kbps
Width : 1 008 pixels
Height : 428 pixels
Display aspect ratio : 2.35:1
Frame rate mode : Constant
Frame rate : 23.976 fps
Color space : YUV
Chroma subsampling : 4:2:0
Bit depth : 8 bits
Scan type : Progressive
Bits/(Pixel*Frame) : 0.132
Stream size : 929 MiB (62%)
Writing library : x264 core 144 r2525 40bb568
Encoding settings : cabac=1 / ref=10 / deblock=1:-2:-1 / analyse=0x3:0x113 / me=umh / subme=11 / psy=1 / psy_rd=1.10:0.05 / mixed_ref=1 / me_range=38 / chroma_me=1 / trellis=2 / 8x8dct=1 / cqm=0 / deadzone=21,11 / fast_pskip=0 / chroma_qp_offset=-3 / threads=6 / lookahead_threads=1 / sliced_threads=0 / nr=0 / decimate=0 / interlaced=0 / bluray_compat=0 / constrained_intra=0 / bframes=16 / b_pyramid=2 / b_adapt=2 / b_bias=0 / direct=3 / weightb=1 / open_gop=0 / weightp=2 / keyint=240 / keyint_min=23 / scenecut=40 / intra_refresh=0 / rc_lookahead=60 / rc=2pass / mbtree=0 / bitrate=1365 / ratetol=1.0 / qcomp=0.60 / qpmin=10 / qpmax=51 / qpstep=4 / cplxblur=20.0 / qblur=0.5 / vbv_maxrate=50000 / vbv_bufsize=62500 / nal_hrd=none / filler=0 / ip_ratio=1.30 / pb_ratio=1.20 / aq=2:1.00 / zones=132000,141046,q=25
Default : Yes
Forced : No

Audio #1
ID : 2
Format : AC-3
Format/Info : Audio Coding 3
Mode extension : CM (complete main)
Format settings, Endianness : Big
Codec ID : A_AC3
Duration : 1h 38mn
Bit rate mode : Constant
Bit rate : 384 Kbps
Channel(s) : 6 channels
Channel positions : Front: L C R, Side: L R, LFE
Sampling rate : 48.0 KHz
Bit depth : 16 bits
Compression mode : Lossy
Stream size : 269 MiB (18%)
Title : Дубляж
Language : Russian
Default : No
Forced : No

Audio #2
ID : 3
Format : AC-3
Format/Info : Audio Coding 3
Mode extension : CM (complete main)
Format settings, Endianness : Big
Codec ID : A_AC3
Duration : 1h 38mn
Bit rate mode : Constant
Bit rate : 384 Kbps
Channel(s) : 6 channels
Channel positions : Front: L C R, Side: L R, LFE
Sampling rate : 48.0 KHz
Bit depth : 16 bits
Compression mode : Lossy
Stream size : 269 MiB (18%)
Title : Оригинал
Language : English
Default : No
Forced : No

Text #1
ID : 4
Format : UTF-8
Codec ID : S_TEXT/UTF8
Codec ID/Info : UTF-8 Plain Text
Title : Русский (Forced)
Language : Russian
Default : Yes
Forced : No

Text #2
ID : 5
Format : UTF-8
Codec ID : S_TEXT/UTF8
Codec ID/Info : UTF-8 Plain Text
Title : Русский
Language : Russian
Default : No
Forced : No

Text #3
ID : 6
Format : UTF-8
Codec ID : S_TEXT/UTF8
Codec ID/Info : UTF-8 Plain Text
Title : Английский
Language : English
Default : No
Forced : No

Menu
00:00:00.000 : en:1. Opening Credits/Berlin
00:04:45.326 : en:2. Departure
00:11:05.665 : en:3. Boarding
00:17:55.324 : en:4. Julia Is Missing
00:26:53.069 : en:5. No Record
00:34:03.041 : en:6. Cabin Search
00:40:44.984 : en:7. Delusion or Reality?
00:48:49.509 : en:8. Believing Something Else
00:54:56.876 : en:9. Search the Holds
01:03:27.970 : en:10. Descent
01:11:51.724 : en:11. Demands
01:18:21.071 : en:12. Arrival
01:28:44.027 : en:13. Taken Away
01:31:39.410 : en:14. Credits



Скачать Иллюзия.полета.Flightplan.(Роберт.Швентке).[2005.боевик.триллер.драма.детектив.HDRip-AVC].[Dub]+[Оригинал]+[Sub]x2.torrent без регистрации
Золото ЗОЛОТАЯ РАЗДАЧА! СКАЧАННОЕ НЕ ЗАСЧИТЫВАЕТСЯ! Золото
Дата: Зарегистрирован   [ Тип: внутренний ] Как тут cкачать?
MAGNET ссылка
MAGNET ссылка


Скачать .torrent

15 KB

Статус: проверено DHT
Скачан: торрент - 50 раз, раздача полностью - 23 раз
Размер: 1,46 GB
Оценка:  - (Голосов: 0)
Поблагодарили: 2
Поделиться ссылкой на эту раздачу с друзьями:
В контактеFacebookОдноклассникиTwitterLivejournalМой МирLiveinternet
 

 
Показать сообщения:    


Вы не можете начинать темы
Вы не можете отвечать на сообщения
Вы не можете редактировать свои сообщения
Вы не можете удалять свои сообщения
Вы не можете голосовать в опросах
Вы не можете прикреплять файлы к сообщениям
Вы можете скачивать файлы