Loading...
Error

Скачать История желтой туфельки / Historia żółtej ciżemki (Сильвестр Хенчиньский) [1961, семейный, история, DVDRip] [VO (Семен Ващенко)] торрент без регистрации

 
Статистика раздачи
Размер:  1,57 GB   |    Скачан:  29 раз

Полного источника не было: 26 минут

 
Автор Сообщение

Marsianka

[] 

Информация о фильме
Название: История желтой туфельки / История золотой туфельки / История желтого пулена
Оригинальное название: Historia żółtej ciżemki
Год выхода: 1961
Жанр: семейный, история
Режиссер: Сильвестр Хенчиньский
В ролях: Густав Холоубек, Анджей Щепковский, Марек Кондрат, Бронислав Павлик, Тадеуш Бялощиньский, Богумил Кобеля, Богдан Баэр, Беата Барщевска, Ханна Бедрыньская, Мечислав Чехович

О фильме:
История о талантливом мальчике Вавжике, который, покинув село и приехав в Краков, устроился в мастерскую замечательного резчика по дереву Вита Ствоша и стал самым способным из его учеников. Во время реставрации алтаря костела девы Марии в Кракове была найдена жёлтая туфелька. Как она там оказалась? Кому она могла принадлежать? Мог ли ремесленник носить такую сафьяновую обувь? И могла ли быть у взрослого человека обувь такого маленького размера? Может, она умышленно была брошена за алтарь? Чтобы ответить на эти вопросы, нужно вернуться приблизительно на 500 лет назад в Краков во времена правления Казимира Ягеллончика...

По мотивам одноименной повести Антонины Доманской. В 1962 году фильм был удостоен серебряной медали МКФ в Венеции на конкурсе фильмов для детей.



Производство: Польша / WFF Lodz, ZRF "Iluzjon"
Продолжительность: 01:21:00
Озвучивание: любительское (одноголосое закадровое) Семен Ващенко по переводу Professor

Файл
Качество: DVDRip
Формат: AVI
Видео: XviD, 720x496 (3:2), 25.000 fps, 2343 kbps, 0.262 bit/pixel
Аудио #1: русский, AC3 2.0, 48 kHz, 192 kbps
Аудио #2: польский, AC3 2.0, 48 kHz, 224 kbps
Формат : AVI
Формат/Информация : Audio Video Interleave
Размер файла : 1,57 Гбайт
Продолжительность : 1 ч. 21 м.
Общий поток : 2773 Кбит/сек
Программа кодирования : VirtualDubModRus 1.5.10.2 (build 2542/release)
Библиотека кодирования : VirtualDubMod build 2542/release

Видео
Идентификатор : 0
Формат : MPEG-4 Visual
Профиль формата : Advanced Simple@L5
Параметр BVOP формата : 1
Параметр QPel формата : Нет
Параметр GMC формата : Без точки перехода
Параметр матрицы формата : Default (H.263)
Режим смешивания : Сжатый битовый поток
Идентификатор кодека : XVID
Идентификатор кодека/Подсказка : XviD
Продолжительность : 1 ч. 21 м.
Битрейт : 2343 Кбит/сек
Ширина : 720 пикселей
Высота : 496 пикселей
Соотношение сторон : 3:2
Частота кадров : 25,000 кадров/сек
Цветовое пространство : YUV
Субдискретизация насыщенности : 4:2:0
Битовая глубина : 8 бит
Тип развёртки : Прогрессивная
Метод сжатия : С потерями
Бит/(Пиксели*Кадры) : 0.262
Размер потока : 1,33 Гбайт (84%)
Библиотека кодирования : XviD 1.1.0 (UTC 2005-11-22)

Аудио #1
Идентификатор : 1
Формат : AC-3
Формат/Информация : Audio Coding 3
Расширение режима : CM (complete main)
Параметр Endianness формата : Big
Идентификатор кодека : 2000
Продолжительность : 1 ч. 20 м.
Вид битрейта : Постоянный
Битрейт : 192 Кбит/сек
Каналы : 2 канала
Расположение каналов : Front: L R
Частота : 48,0 КГц
Метод сжатия : С потерями
Размер потока : 111 Мбайт (7%)
Выравнивание : Разделение по промежуткам
Продолжительность промежутка : 40 мс. (1,00 видеокадр)
Время предзагрузки промежутка : 500 мс.

Аудио #2
Идентификатор : 2
Формат : AC-3
Формат/Информация : Audio Coding 3
Расширение режима : CM (complete main)
Параметр Endianness формата : Big
Идентификатор кодека : 2000
Продолжительность : 1 ч. 20 м.
Вид битрейта : Постоянный
Битрейт : 224 Кбит/сек
Каналы : 2 канала
Расположение каналов : Front: L R
Частота : 48,0 КГц
Метод сжатия : С потерями
Размер потока : 130 Мбайт (8%)
Выравнивание : Разделение по промежуткам
Продолжительность промежутка : 40 мс. (1,00 видеокадр)
Время предзагрузки промежутка : 500 мс.
Релиз от:



Скачать История.желтой.туфельки.Historia.żółtej.ciżemki.(Сильвестр.Хенчиньский).[1961.семейный.история.DVDRip].[VO.(Семен.Ващенко)].torrent без регистрации
Золото ЗОЛОТАЯ РАЗДАЧА! СКАЧАННОЕ НЕ ЗАСЧИТЫВАЕТСЯ! Золото
Дата: Зарегистрирован   [ Тип: внутренний ] Как тут cкачать?
MAGNET ссылка
MAGNET ссылка


Скачать .torrent

16 KB

Статус: проверено DHT
Скачан: торрент - 29 раз, раздача полностью - 15 раз
Размер: 1,57 GB
Оценка:  - (Голосов: 0)
Поблагодарили: 1
Поделиться ссылкой на эту раздачу с друзьями:
В контактеFacebookОдноклассникиTwitterLivejournalМой МирLiveinternet
 

 
Показать сообщения:    


Вы не можете начинать темы
Вы не можете отвечать на сообщения
Вы не можете редактировать свои сообщения
Вы не можете удалять свои сообщения
Вы не можете голосовать в опросах
Вы не можете прикреплять файлы к сообщениям
Вы можете скачивать файлы