Loading...
Error

Скачать ...И зовут тебя Джона / ...And Your Name Is Jonah (Ричард Майклс) [1979, драма, WEBRip] [Sub]x2 торрент без регистрации

 
Статистика раздачи
Размер:  935 MB   |    Скачан:  18 раз
Сидов:  1  [  0 KB/s  ]  
 
Автор Сообщение

Marsianka

[] 

Информация о фильме
Название: ...И зовут тебя Джона
Оригинальное название: ...And Your Name Is Jonah
Год выхода: 1979
Жанр: драма
Режиссер: Ричард Майклс
В ролях: Сэлли Стразерс, Джеймс Вудс, Рэнди Хеллер, Титос Вандис, Пенни Сантон, Рут Мэннинг, Джеффри Бравин, Роберт Дави, Эрика Йон, Энтони Пондзини, Джереми Лихт

О фильме:
Пара, чей сын жил с диагнозом "умственно отсталый", была шокирована, узнав, что диагноз был ошибочный, и что их сын глухой, а не умственно отсталый.



Производство: США / Charles Fries Productions
Продолжительность: 01:34:59
Перевод: русские субтитры от r123

Файл
Качество: WEBRip
Формат: MKV
Видео: MPEG-4 AVC, 640x480 (4:3), 29.970 fps, 1221 kbps, 0.133 bit/pixel
Аудио: английский, AC3 2.0, 44.1 kHz, 128 kbps
Субтитры: русские, английские вшитые отключаемые
Формат : Matroska
Версия формата : Version 4 / Version 2
Размер файла : 935 Мбайт
Продолжительность : 1 ч. 34 м.
Общий поток : 1376 Кбит/сек
Дата кодирования : UTC 2016-06-08 15:01:28
Программа кодирования : mkvmerge v7.9.0 ('Birds') 64bit
Библиотека кодирования : libebml v1.3.1 + libmatroska v1.4.2

Видео
Идентификатор : 1
Формат : AVC
Формат/Информация : Advanced Video Codec
Профиль формата : Baseline@L3
Параметр CABAC формата : Нет
Параметр ReFrames формата : 1 кадр
Параметр GOP формата : M=1, N=25
Режим смешивания : Container profile=Baseline@4.1
Идентификатор кодека : V_MPEG4/ISO/AVC
Продолжительность : 1 ч. 34 м.
Битрейт : 1221 Кбит/сек
Ширина : 640 пикселей
Высота : 480 пикселей
Соотношение сторон : 4:3
Режим частоты кадров : Постоянный
Частота кадров : 29,970 кадров/сек
Частота кадров в оригинале : 29,000 кадров/сек
Цветовое пространство : YUV
Субдискретизация насыщенности : 4:2:0
Битовая глубина : 8 бит
Тип развёртки : Прогрессивная
Бит/(Пиксели*Кадры) : 0.133
Размер потока : 830 Мбайт (89%)
Язык : English
Default : Да
Forced : Нет

Аудио
Идентификатор : 2
Формат : AC-3
Формат/Информация : Audio Coding 3
Расширение режима : CM (complete main)
Параметр Endianness формата : Big
Идентификатор кодека : A_AC3
Продолжительность : 1 ч. 34 м.
Вид битрейта : Постоянный
Битрейт : 128 Кбит/сек
Каналы : 2 канала
Расположение каналов : Front: L R
Частота : 44,1 КГц
Метод сжатия : С потерями
Размер потока : 87,0 Мбайт (9%)
Язык : English
Default : Да
Forced : Нет

Текст #1
Идентификатор : 3
Формат : UTF-8
Идентификатор кодека : S_TEXT/UTF8
Идентификатор кодека/Информация : UTF-8 Plain Text
Заголовок : r123
Язык : Russian
Default : Да
Forced : Нет

Текст #2
Идентификатор : 4
Формат : UTF-8
Идентификатор кодека : S_TEXT/UTF8
Идентификатор кодека/Информация : UTF-8 Plain Text
Язык : English
Default : Нет
Forced : Нет
Релиз от:



Скачать И.зовут.тебя.Джона.And.Your.Name.Is.Jonah.(Ричард.Майклс).[1979.драма.WEBRip].[Sub]x2.torrent без регистрации
Золото ЗОЛОТАЯ РАЗДАЧА! СКАЧАННОЕ НЕ ЗАСЧИТЫВАЕТСЯ! Золото
Дата: Зарегистрирован   [ Тип: внутренний ] Как тут cкачать?
MAGNET ссылка
MAGNET ссылка


Скачать .torrent

19 KB

Статус: проверено DHT
Скачан: торрент - 18 раз, раздача полностью - 0 раз
Размер: 935 MB
Оценка:  - (Голосов: 0)
Поблагодарили: 0
Поделиться ссылкой на эту раздачу с друзьями:
В контактеFacebookОдноклассникиTwitterLivejournalМой МирLiveinternet
 

 
Показать сообщения:    


Вы не можете начинать темы
Вы не можете отвечать на сообщения
Вы не можете редактировать свои сообщения
Вы не можете удалять свои сообщения
Вы не можете голосовать в опросах
Вы не можете прикреплять файлы к сообщениям
Вы можете скачивать файлы