Loading...
Error

Скачать Петер и Петра / Peter och Petra (Агнета Элерс-Ярлеман) [1989, семейный, сказка, DVDRip] [Sub]x2 торрент без регистрации

 
Статистика раздачи
Размер:  1,37 GB   |    Скачан:  18 раз

Полного источника не было: 27 минут

 
Автор Сообщение

Marsianka

[] 

Информация о фильме
Название: Петер и Петра
Оригинальное название: Peter och Petra
Год выхода: 1989
Жанр: семейный, сказка
Режиссер: Агнета Элерс-Ярлеман
В ролях: Анна Карлссон, Пер Эггерс, Бьёрн Джеда, Хенрик Хольмберг, Барбро Ларссон, Анн Петрен, Йошуа Петсонк, Эбба Сойе-Берггрен, Калле Торен, Биргитта Вальберг

О фильме:
Однажды в дверь класса, в котором учился Гуннар, постучали. Открыв дверь, он не поверил своим глазам: к ним в класс пришли учиться крохотные мальчик и девочка, ростом не выше куклы! Дети с радостью принимают новых одноклассников, а Гуннар становится им особо близким другом.

По одноимённой сказке Астрид Линдгрен.



Производство: Швеция / SVT Drama, Svensk Filmindustri (SF)
Продолжительность: 01:10:45
Перевод: русские субтитры от Ali+sher aka Alisha

Файл
Качество: DVDRip
Формат: AVI
Видео: XviD, 720x464 (16:10), 25.000 fps, 2664 kbps, 0.319 bit/pixel
Аудио: шведский, AC3 1.0, 48 kHz, 96 kbps
Субтитры: русские, шведские внешние, SRT
Формат : AVI
Формат/Информация : Audio Video Interleave
Размер файла : 1,37 Гбайт
Продолжительность : 1 ч. 10 м.
Общий поток : 2767 Кбит/сек
Программа кодирования : VirtualDubMod 1.5.4.1 (build 2178/release)
Библиотека кодирования : VirtualDubMod build 2178/release

Видео
Идентификатор : 0
Формат : MPEG-4 Visual
Профиль формата : Advanced Simple@L5
Параметр BVOP формата : Нет
Параметр QPel формата : Нет
Параметр GMC формата : Без точки перехода
Параметр матрицы формата : Выборочная
Идентификатор кодека : XVID
Идентификатор кодека/Подсказка : XviD
Продолжительность : 1 ч. 10 м.
Битрейт : 2664 Кбит/сек
Ширина : 720 пикселей
Высота : 464 пикселя
Соотношение сторон : 16:10
Частота кадров : 25,000 кадров/сек
Цветовое пространство : YUV
Субдискретизация насыщенности : 4:2:0
Битовая глубина : 8 бит
Тип развёртки : Прогрессивная
Метод сжатия : С потерями
Бит/(Пиксели*Кадры) : 0.319
Размер потока : 1,32 Гбайт (96%)
Библиотека кодирования : XviD 64

Аудио
Идентификатор : 1
Формат : AC-3
Формат/Информация : Audio Coding 3
Расширение режима : CM (complete main)
Параметр Endianness формата : Big
Идентификатор кодека : 2000
Продолжительность : 1 ч. 10 м.
Вид битрейта : Постоянный
Битрейт : 96,0 Кбит/сек
Каналы : 1 канал
Расположение каналов : Front: C
Частота : 48,0 КГц
Метод сжатия : С потерями
Размер потока : 48,6 Мбайт (3%)
Выравнивание : Соединение по промежуткам
Продолжительность промежутка : 96 мс. (2,40 видеокадра)
Время предзагрузки промежутка : 96 мс.
Язык : Svenska



Скачать Петер.и.Петра.Peter.och.Petra.(Агнета.Элерс-Ярлеман).[1989.семейный.сказка.DVDRip].[Sub]x2.torrent без регистрации
Золото ЗОЛОТАЯ РАЗДАЧА! СКАЧАННОЕ НЕ ЗАСЧИТЫВАЕТСЯ! Золото
Дата: Зарегистрирован   [ Тип: внутренний ] Как тут cкачать?
MAGNET ссылка
MAGNET ссылка


Скачать .torrent

15 KB

Статус: проверено DHT
Скачан: торрент - 18 раз, раздача полностью - 0 раз
Размер: 1,37 GB
Оценка:  - (Голосов: 0)
Поблагодарили: 1
Поделиться ссылкой на эту раздачу с друзьями:
В контактеFacebookОдноклассникиTwitterLivejournalМой МирLiveinternet
 

 
Показать сообщения:    


Вы не можете начинать темы
Вы не можете отвечать на сообщения
Вы не можете редактировать свои сообщения
Вы не можете удалять свои сообщения
Вы не можете голосовать в опросах
Вы не можете прикреплять файлы к сообщениям
Вы можете скачивать файлы