Loading...
Error

Скачать Каннибалы / Cannibal ferox (Умберто Ленци) [1981 г., ужасы, приключения, DVDRip-AVC] [AVO (Визгунов)] торрент без регистрации

 
Статистика раздачи
Размер:  1,46 GB   |    Скачан:  35 раз

Полного источника не было: 1 месяц 15 дней

 
Автор Сообщение

durik

[] 

Каннибалы / Cannibal ferox

Информация о фильме
Название: Каннибалы
Оригинальное название: Cannibal ferox
Год выхода: 1981
Жанр: ужасы, приключения
Режиссер: Умберто Ленци
В ролях: Джованни Ломбардо Радице, Лоррейн Де Селле, Данило Маттеи, Зора Керова, Уолтер Луккини, Фьямма Мальоне, Роберт Керман, Джон Барта, Венантино Венантини, «Эль Индио» Ринкон

О фильме:
Майк — преступник и садист. Ему нет места в обществе. Он живет по закону джунглей — во всех смыслах. И именно в дебрях Амазонии он пытается найти то, от чего в ужасе отвернется любой из нас: боль и кровь. Но джунгли таят в себе еще более кошмарные вещи…



Страна: Италия
Студия: Dania Film, Medusa Distribuzione, National Cinematografica
Продолжительность: 01:28:59
Перевод: Авторский (одноголосый закадровый)[Сергей Визгунов]

Файл
Кодек: AVC
Качество: DVDRip-AVC
Видео: 704x568@1010x568, 1960 kbps, 25 fps, 0.196 Bits/(Pixel*Frame)
Звук:
1. AC3, 48 kHz, 192 kbps, 2 ch - RUS [AVO]
2. AC3, 48 kHz, 192 kbps, 2 ch - ENG
Субтитры: английские
Общее
Уникальный идентификатор : 175921465358744546052094116909915988386 (0x84593DE692408D5694656C88207661A2)
Полное имя : F:\Cannibal.Ferox.1981.Rus.Eng.DVDRip-AVC_by_Bathory.mkv
Формат : Matroska
Версия формата : Version 4 / Version 2
Размер файла : 1,46 Гбайт
Продолжительность : 1 ч. 28 м.
Общий поток : 2346 Кбит/сек
Дата кодирования : UTC 2016-06-12 13:30:20
Программа кодирования : mkvmerge v8.6.1 ('Flying') 64bit
Библиотека кодирования : libebml v1.3.3 + libmatroska v1.4.4

Видео
Идентификатор : 1
Формат : AVC
Формат/Информация : Advanced Video Codec
Профиль формата : High@L4.1
Параметр CABAC формата : Да
Параметр ReFrames формата : 12 кадров
Идентификатор кодека : V_MPEG4/ISO/AVC
Продолжительность : 1 ч. 28 м.
Битрейт : 1960 Кбит/сек
Ширина : 704 пикселя
Высота : 568 пикселей
Соотношение сторон : 16:9
Режим частоты кадров : Постоянный
Частота кадров : 25,000 кадров/сек
Цветовое пространство : YUV
Субдискретизация насыщенности : 4:2:0
Битовая глубина : 8 бит
Тип развёртки : Прогрессивная
Бит/(Пиксели*Кадры) : 0.196
Размер потока : 1,22 Гбайт (84%)
Библиотека кодирования : x264 core 148 r2692 64f4e24
Настройки программы : cabac=1 / ref=12 / deblock=1:-2:-1 / analyse=0x3:0x133 / me=umh / subme=11 / psy=1 / psy_rd=1.16:0.20 / mixed_ref=1 / me_range=32 / chroma_me=1 / trellis=2 / 8x8dct=1 / cqm=0 / deadzone=21,11 / fast_pskip=0 / chroma_qp_offset=-3 / threads=12 / lookahead_threads=3 / sliced_threads=0 / nr=0 / decimate=0 / interlaced=0 / bluray_compat=0 / constrained_intra=0 / bframes=14 / b_pyramid=2 / b_adapt=2 / b_bias=0 / direct=3 / weightb=1 / open_gop=0 / weightp=2 / keyint=250 / keyint_min=25 / scenecut=0 / intra_refresh=0 / rc_lookahead=60 / rc=2pass / mbtree=1 / bitrate=1960 / ratetol=1.0 / qcomp=0.70 / qpmin=0 / qpmax=51 / qpstep=4 / cplxblur=15.0 / qblur=0.5 / vbv_maxrate=50000 / vbv_bufsize=62500 / nal_hrd=none / filler=0 / ip_ratio=1.40 / aq=2:1.00
Default : Да
Forced : Нет

Аудио #1
Идентификатор : 2
Формат : AC-3
Формат/Информация : Audio Coding 3
Расширение режима : CM (complete main)
Параметр Endianness формата : Big
Идентификатор кодека : A_AC3
Продолжительность : 1 ч. 28 м.
Вид битрейта : Постоянный
Битрейт : 192 Кбит/сек
Каналы : 2 канала
Расположение каналов : Front: L R
Частота : 48,0 КГц
Частота кадров : 31,250 кадров/сек (1536 spf)
Метод сжатия : С потерями
Размер потока : 122 Мбайт (8%)
Язык : Russian
Default : Да
Forced : Нет

Аудио #2
Идентификатор : 3
Формат : AC-3
Формат/Информация : Audio Coding 3
Расширение режима : CM (complete main)
Параметр Endianness формата : Big
Идентификатор кодека : A_AC3
Продолжительность : 1 ч. 28 м.
Вид битрейта : Постоянный
Битрейт : 192 Кбит/сек
Каналы : 2 канала
Расположение каналов : Front: L R
Частота : 48,0 КГц
Частота кадров : 31,250 кадров/сек (1536 spf)
Метод сжатия : С потерями
Размер потока : 122 Мбайт (8%)
Язык : English
Default : Нет
Forced : Нет

Текст
Идентификатор : 4
Формат : UTF-8
Идентификатор кодека : S_TEXT/UTF8
Идентификатор кодека/Информация : UTF-8 Plain Text
Продолжительность : 1 ч. 25 м.
Битрейт : 47 бит/сек
Count of elements : 1033
Размер потока : 29,8 Кбайт (0%)
Язык : English
Default : Да
Forced : Нет
Релиз от:

Автор рипа: Bathory



Скачать Каннибалы.Cannibal.ferox.(Умберто.Ленци).[1981.г.ужасы.приключения.DVDRip-AVC].[AVO.(Визгунов)].torrent без регистрации
Золото ЗОЛОТАЯ РАЗДАЧА! СКАЧАННОЕ НЕ ЗАСЧИТЫВАЕТСЯ! Золото
Дата: Зарегистрирован   [ Тип: внутренний ] Как тут cкачать?
MAGNET ссылка
MAGNET ссылка


Скачать .torrent

15 KB

Статус: * не проверено
Скачан: торрент - 35 раз, раздача полностью - 74 раз
Размер: 1,46 GB
Оценка:  - (Голосов: 0)
Поблагодарили: 1
Поделиться ссылкой на эту раздачу с друзьями:
В контактеFacebookОдноклассникиTwitterLivejournalМой МирLiveinternet
 

 
Показать сообщения:    


Вы не можете начинать темы
Вы не можете отвечать на сообщения
Вы не можете редактировать свои сообщения
Вы не можете удалять свои сообщения
Вы не можете голосовать в опросах
Вы не можете прикреплять файлы к сообщениям
Вы можете скачивать файлы