Loading...
Error

Скачать Лучшие из лучших 3 / Best of the Best 3: No Turning Back (Филлип Ри) [1995, боевик, триллер, драма, криминал, BDRip] [MVO]+[Оригинал]+[Sub]x2 торрент без регистрации

 
Статистика раздачи
Размер:  1,46 GB   |    Скачан:  24 раза

Полного источника не было: 26 минут

Личеров:  1  [  2 KB/s  ]  
 
Автор Сообщение

Marsianka

[] 

Страна: США
Студия: Picture Securities, The Movie Group Inc.
Жанр: боевик, триллер, драма, криминал
Год выпуска: 1995
Продолжительность: 01:30:46

Режиссер: Филлип Ри / Phillip Ree

В ролях: Филлип Ри, Кристофер МакДональд, Джина Гершон, Марк Ролстон, Питер Симмонс, Кристина Лосон, Ди Уоллес-Стоун, Майкл Бэйли Смит, Джастин Брентли, Андра Р. Уорд, Барбара Бойд, Китао Сакурай, Коул С. МакКэй, Джон Роберт Томпсон.

Описание: Тихая «заштатная» Индиана. 17-летний Оуэн возвращается домой после бурных, но безуспешных поисков работы. Его мать требует от сына денег, не желая вдаваться в запутанные перипетии его судьбы.

Но унизительная семейная жизнь для него хуже удавки. Он бежит от нее навстречу опасным приключениям, непредсказуемым ловушкам и попадает в неонацистский лагерь. А здесь без приемов каратэ любого ждет смерть.



Автор рипа: Sem-te

Релиз от:

Тип релиза: BDRip-AVC
Контейнер: MKV

Видео: 880x496 (16:9), 23.976 fps, MPEG-4 AVC, 1912 kbps avg, 0.183 bit/pixel
За перевод Рен-тв спасибо ka4ygar, за синхронизацию перевода огромное спасибо Нордер.
Перевод: Профессиональный (многоголосый закадровый) РЕН-ТВ

Cубтитры: русские, английские
Оригинальная аудиодорожка: английский
Аудио 1: 48 kHz, AC3 Dolby Digital, 2/0 (L,R) ch, ~192 kbps
Аудио 2: 48 kHz, AC3 Dolby Digital, 2/0 (L,R) ch, ~192 kbps
Формат субтитров: softsub (SRT)

General
Unique ID : 232386563162470680103696637543339198550 (0xAED406293DA15A71B1A21496742B0856)
Format : Matroska
Format version : Version 2
File size : 1.46 GiB
Duration : 1h 30mn
Overall bit rate : 2 297 Kbps
Encoded date : UTC 2016-06-08 13:39:36
Writing application : mkvmerge v7.8.0 ('River Man') 32bit built on Apr 3 2015 12:11:22
Writing library : libebml v1.3.1 + libmatroska v1.4.2

Video
ID : 1
Format : AVC
Format/Info : Advanced Video Codec
Format profile : High@L4.1
Format settings, CABAC : Yes
Format settings, ReFrames : 11 frames
Codec ID : V_MPEG4/ISO/AVC
Duration : 1h 30mn
Bit rate : 1 912 Kbps
Width : 880 pixels
Height : 496 pixels
Display aspect ratio : 16:9
Frame rate mode : Constant
Frame rate : 23.976 fps
Color space : YUV
Chroma subsampling : 4:2:0
Bit depth : 8 bits
Scan type : Progressive
Bits/(Pixel*Frame) : 0.183
Stream size : 1.18 GiB (81%)
Writing library : x264 core 146 r2538 121396c
Encoding settings : cabac=1 / ref=11 / deblock=1:-2:-1 / analyse=0x3:0x133 / me=umh / subme=11 / psy=1 / psy_rd=1.00:0.20 / mixed_ref=1 / me_range=32 / chroma_me=1 / trellis=2 / 8x8dct=1 / cqm=0 / deadzone=21,11 / fast_pskip=1 / chroma_qp_offset=-3 / threads=3 / lookahead_threads=1 / sliced_threads=0 / nr=0 / decimate=1 / interlaced=0 / bluray_compat=0 / constrained_intra=0 / bframes=11 / b_pyramid=2 / b_adapt=2 / b_bias=0 / direct=3 / weightb=1 / open_gop=0 / weightp=2 / keyint=250 / keyint_min=23 / scenecut=40 / intra_refresh=0 / rc_lookahead=60 / rc=2pass / mbtree=1 / bitrate=1912 / ratetol=1.0 / qcomp=0.60 / qpmin=0 / qpmax=69 / qpstep=4 / cplxblur=20.0 / qblur=0.5 / ip_ratio=1.40 / aq=1:1.00
Default : Yes
Forced : No

Audio #1
ID : 2
Format : AC-3
Format/Info : Audio Coding 3
Mode extension : CM (complete main)
Format settings, Endianness : Big
Codec ID : A_AC3
Duration : 1h 30mn
Bit rate mode : Constant
Bit rate : 192 Kbps
Channel(s) : 2 channels
Channel positions : Front: L R
Sampling rate : 48.0 KHz
Bit depth : 16 bits
Compression mode : Lossy
Stream size : 125 MiB (8%)
Title : MVO (РЕН-ТВ)
Language : Russian
Default : Yes
Forced : No

Audio #2
ID : 3
Format : AC-3
Format/Info : Audio Coding 3
Mode extension : CM (complete main)
Format settings, Endianness : Big
Codec ID : A_AC3
Duration : 1h 30mn
Bit rate mode : Constant
Bit rate : 192 Kbps
Channel(s) : 2 channels
Channel positions : Front: L R
Sampling rate : 48.0 KHz
Bit depth : 16 bits
Compression mode : Lossy
Stream size : 125 MiB (8%)
Language : English
Default : No
Forced : No

Text #1
ID : 4
Format : UTF-8
Codec ID : S_TEXT/UTF8
Codec ID/Info : UTF-8 Plain Text
Language : Russian
Default : No
Forced : No

Text #2
ID : 5
Format : UTF-8
Codec ID : S_TEXT/UTF8
Codec ID/Info : UTF-8 Plain Text
Language : English
Default : No
Forced : No

Menu
00:00:00.000 : :Chapter 01
00:05:57.857 : :Chapter 02
00:10:43.643 : :Chapter 03
00:17:18.662 : :Chapter 04
00:25:04.544 : :Chapter 05
00:35:03.142 : :Chapter 06
00:44:39.259 : :Chapter 07
00:54:11.248 : :Chapter 08
01:00:02.599 : :Chapter 09
01:05:51.656 : :Chapter 10
01:16:11.275 : :Chapter 11
01:25:06.559 : :Chapter 12



Скачать Лучшие.из.лучших.3.Best.of.the.Best.3.No.Turning.Back.(Филлип.Ри).[1995.боевик.триллер.драма.криминал.BDRip].[MVO]+[Оригинал]+[Sub]x2.torrent без регистрации
Золото ЗОЛОТАЯ РАЗДАЧА! СКАЧАННОЕ НЕ ЗАСЧИТЫВАЕТСЯ! Золото
Дата: Зарегистрирован   [ Тип: внутренний ] Как тут cкачать?
MAGNET ссылка
MAGNET ссылка


Скачать .torrent

15 KB

Статус: проверено DHT
Скачан: торрент - 24 раз, раздача полностью - 0 раз
Размер: 1,46 GB
Оценка:  - (Голосов: 0)
Поблагодарили: 0
Поделиться ссылкой на эту раздачу с друзьями:
В контактеFacebookОдноклассникиTwitterLivejournalМой МирLiveinternet
 

 
Показать сообщения:    


Вы не можете начинать темы
Вы не можете отвечать на сообщения
Вы не можете редактировать свои сообщения
Вы не можете удалять свои сообщения
Вы не можете голосовать в опросах
Вы не можете прикреплять файлы к сообщениям
Вы можете скачивать файлы