Loading...
Error

Скачать Чем заняться мертвецу в Денвере / Things to Do in Denver When You're Dead (Гэри Фледер) [1995, драма, криминал, HDRip-AVC] [MVO]x2+[DVO]+[AVO]x2+[Sub]x2 торрент без регистрации

 
Статистика раздачи
Размер:  4,2 GB   |    Скачан:  6 раз
Сидов:  1  [  0 KB/s  ]  
 
Автор Сообщение

Marsianka

[] 

Информация о фильме
Название: Чем заняться мертвецу в Денвере
Оригинальное название: Things to Do in Denver When You're Dead
Год выхода: 1995
Жанр: драма, криминал
Режиссер: Гэри Фледер
В ролях: Энди Гарсиа, Кристофер Уокен, Габриэлль Анвар, Стив Бушеми, Билл Коббс, Кристофер Ллойд, Джек Уорден, Уильям Форсайт, Трит Уильямс, Билл Нанн, Маршалл Белл, Файруза Балк, Майкл Николози, Гленн Пламмер

О фильме: Это история о Джимми-Святом, совершившем «кадровую» ошибку при подборе людей для пустякового дела. Могущественный и крайне неприятный босс преступного мира, парализованный от шеи и ниже, попросил занявшегося легальным бизнесом старого друга припугнуть парня девчонки, в которую одержимо влюблен его придурковатый сын, а отобранные Джимми для дела болваны вместо этого убили обоих. Разъяренный Уокен приказывает убить всех, кроме Джимми, дав другу 48 часов, чтобы исчезнуть. Но Джимми не может бросить друзей, да и у самого только что завязался роман с очаровательной юной красавицей…



Выпущено: США, Miramax Films, Woods Entertainment
Продолжительность: 01:55:34

Перевод 1: Профессиональный (многоголосый, закадровый) Премьер видео
Перевод 2: Профессиональный (многоголосый, закадровый) Премьер видео VHS
Перевод 3: Профессиональный (двухголосый, закадровый) Премьер видео
Перевод 4: Авторский (одноголосый, закадровый) Андрей Гаврилов
Перевод 5: Авторский (одноголосый, закадровый) Юрий Живов
PLATFORM
------------------------------
OS Code: Microsoft Windows NT 6.1.7601 Service Pack 1
OS Name: Windows 7 Professional Service Pack 1 (x64)
Framework: 2.0.50727.5456 (v4.0)
AviSynth: AviSynth 2.60, build:Aug 28 2012 [18:17:07]
CPU Info: Intel(R) Core(TM) i3-3220 CPU @ 3.30GHz (~3292), 4 core(s)
RAM Total: 3007Mb
Language: RUS (1251, ",")
SystemDrive: C:

XviD4PSP
------------------------------
Version: 5.10.305.0
Created: 27.08.2012 13:59:36
AppPath: C:Program Files (x86)XviD4PSP 5
TempPath: E:Temp

FILES
------------------------------
1_1_video.mkv >
1_1_video_2.mkv

TASK
------------------------------
Format: MKV
Duration: 01:55:34:476 (166261)
VideoDecoder: DirectShowSource
Resolution: 1920x1040 > 1024x554
Aspect: 1.8462
VCodecPreset: Custom
VEncodingMode: TwoPass
VideoCodec: h264 > x264
VideoBitrate: 8334 > 2900
Quality: 0.174 > 0.213
Framerate: 23.976
SourceType: PROGRESSIVE
FieldOrder: UNKNOWN

------------------------------
import("C:Program Files (x86)XviD4PSP 5dllsAviSynthfunctionsAudioFunctions.avs")
import("C:Program Files (x86)XviD4PSP 5dllsAviSynthfunctionsVideoFunctions.avs")

DirectShowSource("E:Encode1_1_video.mkv", audio=false, fps=23.976, convertfps=true)

ConvertToYV12()

###[FILTERING]###
###[FILTERING]###

Lanczos4Resize(1024, 554)

VIDEO ENCODING
------------------------------
Encoding video to: E:Encode1_1_video_2.mkv
x264 2900kbps 1024x554 23.976fps (166261 frames)

...first pass...

x264.exe: --pass 1 --bitrate 2900 --preset medium --tune film --profile high --level 4.1 --ref 8 --deblock -2:-2 --merange 48 --no-chroma-me --bframes 8 --direct auto --b-adapt 2 --trellis 2 --no-fast-pskip --no-dct-decimate --partitions all --subme 11 --me umh --rc-lookahead 50 --min-keyint 23 --keyint 240 --open-gop --sar 1:1 --stats "E:Encode1_1_video_2.log" --output NUL "E:Temp�065.avs"

avs [info]: 1024x554p 1:1 @ 2500000/104271 fps (cfr)
x264 [info]: using SAR=1/1
x264 [info]: using cpu capabilities: MMX2 SSE2Fast SSSE3 FastShuffle SSE4.2 AVX
x264 [info]: profile Main, level 4.1

x264 [info]: frame I:1204 Avg QP:13.85 size: 78311
x264 [info]: frame P:33333 Avg QP:16.98 size: 29625
x264 [info]: frame B:131724 Avg QP:18.73 size: 10637
x264 [info]: consecutive B-frames: 1.4% 1.5% 4.1% 18.5% 16.1% 47.3% 6.6% 3.1% 1.3%
x264 [info]: mb I I16..4: 28.7% 0.0% 71.3%
x264 [info]: mb P I16..4: 42.6% 0.0% 0.0% P16..4: 52.9% 0.0% 0.0% 0.0% 0.0% skip: 4.6%
x264 [info]: mb B I16..4: 15.0% 0.0% 0.0% B16..8: 33.4% 0.0% 0.0% direct:23.5% skip:28.1% L0:30.6% L1:36.3% BI:33.1%
x264 [info]: final ratefactor: 17.05
x264 [info]: direct mvs spatial:100.0% temporal:0.0%
x264 [info]: coded y,uvDC,uvAC intra: 80.4% 50.8% 16.2% inter: 32.2% 23.2% 3.1%
x264 [info]: i16 v,h,dc,p: 27% 17% 43% 13%
x264 [info]: i4 v,h,dc,ddl,ddr,vr,hd,vl,hu: 21% 15% 16% 8% 8% 9% 7% 8% 8%
x264 [info]: i8c dc,h,v,p: 58% 18% 21% 4%
x264 [info]: Weighted P-Frames: Y:2.5% UV:0.9%
x264 [info]: kb/s:2864.45

x264 [total]: encoded 166261 frames, 27.27 fps, 2864.45 kb/s

...last pass...

x264.exe: --pass 2 --bitrate 2900 --preset medium --tune film --profile high --level 4.1 --ref 8 --deblock -2:-2 --merange 48 --no-chroma-me --bframes 8 --direct auto --b-adapt 2 --trellis 2 --no-fast-pskip --no-dct-decimate --partitions all --subme 11 --me umh --rc-lookahead 50 --min-keyint 23 --keyint 240 --open-gop --sar 1:1 --stats "E:Encode1_1_video_2.log" --output "E:Encode1_1_video_2.mkv" "E:Temp�065.avs"

avs [info]: 1024x554p 1:1 @ 2500000/104271 fps (cfr)
x264 [info]: using SAR=1/1
x264 [info]: using cpu capabilities: MMX2 SSE2Fast SSSE3 FastShuffle SSE4.2 AVX
x264 [info]: profile High, level 4.1

x264 [info]: frame I:1204 Avg QP:15.54 size: 76825
x264 [info]: frame P:33333 Avg QP:18.58 size: 28584
x264 [info]: frame B:131724 Avg QP:20.23 size: 11138
x264 [info]: consecutive B-frames: 1.4% 1.5% 4.1% 18.5% 16.1% 47.3% 6.6% 3.1% 1.3%
x264 [info]: mb I I16..4: 10.3% 72.5% 17.2%
x264 [info]: mb P I16..4: 1.2% 14.3% 1.5% P16..4: 31.1% 35.4% 9.8% 2.0% 0.2% skip: 4.4%
x264 [info]: mb B I16..4: 0.1% 2.0% 0.1% B16..8: 38.1% 20.8% 2.9% direct: 7.7% skip:28.2% L0:44.4% L1:44.7% BI:10.9%
x264 [info]: 8x8 transform intra:84.0% inter:56.7%
x264 [info]: direct mvs spatial:99.0% temporal:1.0%
x264 [info]: coded y,uvDC,uvAC intra: 89.7% 73.7% 37.8% inter: 33.1% 27.0% 5.7%
x264 [info]: i16 v,h,dc,p: 41% 10% 9% 40%
x264 [info]: i8 v,h,dc,ddl,ddr,vr,hd,vl,hu: 10% 7% 9% 10% 13% 14% 12% 13% 13%
x264 [info]: i4 v,h,dc,ddl,ddr,vr,hd,vl,hu: 16% 7% 7% 8% 13% 14% 11% 11% 11%
x264 [info]: i8c dc,h,v,p: 40% 24% 20% 16%
x264 [info]: Weighted P-Frames: Y:2.5% UV:0.9%
x264 [info]: ref P L0: 42.1% 8.2% 22.1% 7.6% 7.3% 4.8% 5.0% 2.6% 0.2% 0.0%
x264 [info]: ref B L0: 70.4% 14.1% 7.0% 3.7% 2.7% 1.5% 0.6%
x264 [info]: ref B L1: 91.8% 8.2%
x264 [info]: kb/s:2898.45

x264 [total]: encoded 166261 frames, 5.16 fps, 2898.45 kb/s

TIME
------------------------------
Общее время кодирования: 10 hour 38 min 19 sec
Файл получился на: 2397.23 mb
Общее
Уникальный идентификатор : 204087263769847939104611271199812307128 (0x9989C6FA43D6267E9528A3A8D2BD48B8)
Полное имя : D:ТоррентыChem.zanjatsja.mertvecu.v.Denvere.1995.x264.HDRip.(AVC)-NovaLan.mkv
Формат : Matroska
Версия формата : Version 2
Размер файла : 4,20 Гбайт
Продолжительность : 1 ч. 55 м.
Общий поток : 5203 Кбит/сек
Название фильма : Релиз от NovaLan (alek7120)
Дата кодирования : UTC 2013-02-19 12:17:42
Программа кодирования : mkvmerge v5.6.0 ('Kenya Kane') built on May 27 2012 16:44:04
Библиотека кодирования : libebml v1.2.3 + libmatroska v1.3.0

Видео
Идентификатор : 1
Формат : AVC
Формат/Информация : Advanced Video Codec
Профиль формата : High@L4.1
Параметр CABAC формата : Да
Параметр ReFrames формата : 8 кадров
Идентификатор кодека : V_MPEG4/ISO/AVC
Продолжительность : 1 ч. 55 м.
Битрейт : 2900 Кбит/сек
Ширина : 1024 пикселя
Высота : 554 пикселя
Соотношение сторон : 1,85:1
Частота кадров : 23,976 кадра/сек
Цветовое пространство : YUV
Субдискретизация насыщенности : 4:2:0
Битовая глубина : 8 бит
Тип развёртки : Прогрессивная
Бит/(Пиксели*Кадры) : 0.213
Размер потока : 2,26 Гбайт (54%)
Библиотека кодирования : x264 core 125 r2208 d9d2288
Настройки программы : cabac=1 / ref=8 / deblock=1:-2:-2 / analyse=0x3:0x133 / me=umh / subme=11 / psy=1 / psy_rd=1.00:0.15 / mixed_ref=1 / me_range=48 / chroma_me=0 / trellis=2 / 8x8dct=1 / cqm=0 / deadzone=21,11 / fast_pskip=0 / chroma_qp_offset=-3 / threads=6 / lookahead_threads=1 / sliced_threads=0 / nr=0 / decimate=0 / interlaced=0 / bluray_compat=0 / constrained_intra=0 / bframes=8 / b_pyramid=2 / b_adapt=2 / b_bias=0 / direct=3 / weightb=1 / open_gop=1 / weightp=2 / keyint=240 / keyint_min=23 / scenecut=40 / intra_refresh=0 / rc_lookahead=50 / rc=2pass / mbtree=1 / bitrate=2900 / ratetol=1.0 / qcomp=0.60 / qpmin=0 / qpmax=69 / qpstep=4 / cplxblur=20.0 / qblur=0.5 / ip_ratio=1.40 / aq=1:1.00
Язык : English
Default : Да
Forced : Нет

Аудио #1
Идентификатор : 2
Формат : AC-3
Формат/Информация : Audio Coding 3
Расширение режима : CM (complete main)
Параметр Endianness формата : Big
Идентификатор кодека : A_AC3
Продолжительность : 1 ч. 55 м.
Вид битрейта : Постоянный
Битрейт : 448 Кбит/сек
Каналы : 6 каналов
Расположение каналов : Front: L C R, Side: L R, LFE
Частота : 48,0 КГц
Битовая глубина : 16 бит
Метод сжатия : С потерями
Размер потока : 370 Мбайт (9%)
Заголовок : Профессиональный многоголосый (Премьер видео)
Язык : Russian
Default : Да
Forced : Нет

Аудио #2
Идентификатор : 3
Формат : AC-3
Формат/Информация : Audio Coding 3
Расширение режима : CM (complete main)
Параметр Endianness формата : Big
Идентификатор кодека : A_AC3
Продолжительность : 1 ч. 55 м.
Вид битрейта : Постоянный
Битрейт : 384 Кбит/сек
Каналы : 6 каналов
Расположение каналов : Front: L C R, Side: L R, LFE
Частота : 48,0 КГц
Битовая глубина : 16 бит
Метод сжатия : С потерями
Размер потока : 317 Мбайт (7%)
Заголовок : Профессиональный многоголосый (Премьер видео VHS)
Язык : Russian
Default : Нет
Forced : Нет

Аудио #3
Идентификатор : 4
Формат : AC-3
Формат/Информация : Audio Coding 3
Расширение режима : CM (complete main)
Параметр Endianness формата : Big
Идентификатор кодека : A_AC3
Продолжительность : 1 ч. 55 м.
Вид битрейта : Постоянный
Битрейт : 448 Кбит/сек
Каналы : 6 каналов
Расположение каналов : Front: L C R, Side: L R, LFE
Частота : 48,0 КГц
Битовая глубина : 16 бит
Метод сжатия : С потерями
Размер потока : 370 Мбайт (9%)
Заголовок : Профессиональный двухголосый (Премьер видео)
Язык : Russian
Default : Нет
Forced : Нет

Аудио #4
Идентификатор : 5
Формат : AC-3
Формат/Информация : Audio Coding 3
Расширение режима : CM (complete main)
Параметр Endianness формата : Big
Идентификатор кодека : A_AC3
Продолжительность : 1 ч. 55 м.
Вид битрейта : Постоянный
Битрейт : 384 Кбит/сек
Каналы : 6 каналов
Расположение каналов : Front: L C R, Side: L R, LFE
Частота : 48,0 КГц
Битовая глубина : 16 бит
Метод сжатия : С потерями
Размер потока : 317 Мбайт (7%)
Заголовок : Авторский одноголосый (Гаврилов)
Язык : Russian
Default : Нет
Forced : Нет

Аудио #5
Идентификатор : 6
Формат : AC-3
Формат/Информация : Audio Coding 3
Расширение режима : CM (complete main)
Параметр Endianness формата : Big
Идентификатор кодека : A_AC3
Продолжительность : 1 ч. 55 м.
Вид битрейта : Постоянный
Битрейт : 192 Кбит/сек
Каналы : 2 канала
Расположение каналов : Front: L R
Частота : 48,0 КГц
Битовая глубина : 16 бит
Метод сжатия : С потерями
Размер потока : 159 Мбайт (4%)
Заголовок : Авторский одноголосый (Живов)
Язык : Russian
Default : Нет
Forced : Нет

Аудио #6
Идентификатор : 7
Формат : AC-3
Формат/Информация : Audio Coding 3
Расширение режима : CM (complete main)
Параметр Endianness формата : Big
Идентификатор кодека : A_AC3
Продолжительность : 1 ч. 55 м.
Вид битрейта : Постоянный
Битрейт : 448 Кбит/сек
Каналы : 6 каналов
Расположение каналов : Front: L C R, Side: L R, LFE
Частота : 48,0 КГц
Битовая глубина : 16 бит
Метод сжатия : С потерями
Размер потока : 370 Мбайт (9%)
Заголовок : Оригинал (английский)
Язык : English
Default : Нет
Forced : Нет

Текст #1
Идентификатор : 8
Формат : UTF-8
Идентификатор кодека : S_TEXT/UTF8
Идентификатор кодека/Информация : UTF-8 Plain Text
Заголовок : русские
Язык : Russian
Default : Да
Forced : Нет

Текст #2
Идентификатор : 9
Формат : UTF-8
Идентификатор кодека : S_TEXT/UTF8
Идентификатор кодека/Информация : UTF-8 Plain Text
Заголовок : английские
Язык : English
Default : Нет
Forced : Нет
Файл
Кодек: x264
Качество: HDRip-AVC
Видео: MPEG-4 AVC, 2900 Кбит/с, 1024x554, 23,976 кадр/сек

Аудио#1: Russian: (AC3, 6 ch, 448 Кбит/c) - закадровый (многоголосый) Премьер видео;
Аудио#2: Russian: (AC3, 6 ch, 384 Кбит/c) - закадровый (многоголосый) Премьер видео VHS;
Аудио#3: Russian: (AC3, 6 ch, 448 Кбит/c) - закадровый (двухголосый) Премьер видео;
Аудио#4: Russian: (AC3, 6 ch, 384 Кбит/c) - закадровый (одноголосый, Андрей Гаврилов);
Аудио#5: Russian: (AC3, 2 ch, 192 Кбит/c) - закадровый (одноголосый, Юрий Живов);
Аудио#6: English: (AC3, 6 ch, 448 Кбит/c).
Субтитры: Русские, английские
Семпл Релиз от:
Автор рипа:



Скачать Чем.заняться.мертвецу.в.Денвере.Things.to.Do.in.Denver.When.You're.Dead.(Гэри.Фледер).[1995.драма.криминал.HDRip-AVC].[MVO]x2+[DVO]+[AVO]x2+[Sub]x2.torrent без регистрации
Золото ЗОЛОТАЯ РАЗДАЧА! СКАЧАННОЕ НЕ ЗАСЧИТЫВАЕТСЯ! Золото
Дата: Зарегистрирован   [ Тип: внутренний ] Как тут cкачать?
MAGNET ссылка
MAGNET ссылка


Скачать .torrent

11 KB

Статус: проверено DHT
Скачан: торрент - 6 раз, раздача полностью - 2 раз
Размер: 4,2 GB
Оценка:  - (Голосов: 0)
Поблагодарили: 1
Поделиться ссылкой на эту раздачу с друзьями:
В контактеFacebookОдноклассникиTwitterLivejournalМой МирLiveinternet
 

 
Показать сообщения:    


Вы не можете начинать темы
Вы не можете отвечать на сообщения
Вы не можете редактировать свои сообщения
Вы не можете удалять свои сообщения
Вы не можете голосовать в опросах
Вы не можете прикреплять файлы к сообщениям
Вы можете скачивать файлы