Loading...
Error

Скачать Волчья яма / Wolf Creek (сезон 01) (Грег МакЛин, Тони Тилс) [2016, ужасы, триллер, драма, WEBRip] [VO (Project_Web_Mania)] торрент без регистрации

 
Статистика раздачи
Размер:  3,37 GB   |    Скачан:  16 раз
Сидов:  11  [  0 KB/s  ]   Личеров:  1  [  0 KB/s  ]  
 
Автор Сообщение

МихаНЕзатор

[] 

Волчья яма / Wolf Creek


Страна: Австралия
Производство: Emu Creek Pictures, Screentime
Год выпуска: 2016
Жанр: ужасы, триллер, драма
Режиссеры: Грег МакЛин, Тони Тилс
Авторы сценария: Питер Гоулер, Грег МакЛин, Фелисити Паккард

В ролях: Люси Фрай, Джон Джэррэт, Дастин Клер, Эдди Бару, Алисия Гардинер, Энди МакФи, Ричард Коуторн, Джэйк Райан

Описание: Ева могла стать очередной жертвой сумасшедшего серийного убийцы Мика Тейлора. Но ей удается избежать смерти от рук маньяка. И теперь она одержима одной только местью...

Дата премьеры (мир): 12 мая 2016



Сезон: 1
Серии: 1-6 (из 6)
Продолжительность: 6х ~00:45:00
Перевод: Любительский (одноголосый, закадровый) | Project_Web_Mania
Субтитры: нет

Качество: WEBRip
Формат: AVI
Видео кодек: XviD
Аудио кодек: АС3
Видео: 720x400 (16:9), 24.000 fps, XviD ~1 500 kbps avg
Аудио: 44.1 kHz, AC3 Dolby Digital, 2/0 (L,R) ch, ~192 kbps

АНОНСЫ ПОПУЛЯРНЫХ РАЗДАЧ
General
Format : AVI
Format/Info : Audio Video Interleave
Overall bit rate : 2 799 Kbps
Writing application : Lavf57.25.100

Video
ID : 0
Format : MPEG-4 Visual
Format profile : Advanced Simple@L5
Format settings, BVOP : 2
Format settings, QPel : No
Format settings, GMC : No warppoints
Format settings, Matrix : Default (MPEG)
Codec ID : XVID
Codec ID/Hint : XviD
Bit rate : 1 470 Kbps
Width : 720 pixels
Height : 400 pixels
Display aspect ratio : 16:9
Frame rate : 24.000 fps
Color space : YUV
Chroma subsampling : 4:2:0
Bit depth : 8 bits
Scan type : Progressive
Compression mode : Lossy
Bits/(Pixel*Frame) : 0.405
Stream size : 20.5 MiB (93%)
Writing library : XviD 1.2.1 (UTC 2008-12-04)

Audio
ID : 1
Format : AC-3
Format/Info : Audio Coding 3
Mode extension : CM (complete main)
Format settings, Endianness : Big
Codec ID : 2000
Bit rate mode : Constant
Bit rate : 192 Kbps
Channel(s) : 2 channels
Channel positions : Front: L R
Sampling rate : 44.1 KHz
Bit depth : 16 bits
Compression mode : Lossy
Stream size : 1.40 MiB (6%)
Alignment : Split accross interleaves
Interleave, duration : 35 ms (0.84 video frame)



Скачать Волчья.яма.Wolf.Creek.(сезон.01).(Грег.МакЛин.Тони.Тилс).[2016.ужасы.триллер.драма.WEBRip].[VO.(Project_Web_Mania)].torrent без регистрации
Золото ЗОЛОТАЯ РАЗДАЧА! СКАЧАННОЕ НЕ ЗАСЧИТЫВАЕТСЯ! Золото
Дата: Зарегистрирован   [ Тип: внешний ] Как тут cкачать?
MAGNET ссылка
MAGNET ссылка


Скачать .torrent

18 KB

Статус: проверено DHT
Скачан: торрент - 16 раз, раздача полностью - 14 раз
Размер: 3,37 GB
Оценка:  - (Голосов: 0)
Поблагодарили: 1
Поделиться ссылкой на эту раздачу с друзьями:
В контактеFacebookОдноклассникиTwitterLivejournalМой МирLiveinternet
 

 
Показать сообщения:    


Вы не можете начинать темы
Вы не можете отвечать на сообщения
Вы не можете редактировать свои сообщения
Вы не можете удалять свои сообщения
Вы не можете голосовать в опросах
Вы не можете прикреплять файлы к сообщениям
Вы можете скачивать файлы